Welcome Guest ( Log In | Register )

> No Point In Living - Last Hour Of Life (2018), Depressive Black Metal
post Jul 21 2019, 18:55:18
Post #1

Cultist
**************
Group: Металариец
Posts: 4,278
Releases: 1330
From: Koenigsberg
On Forums: 13 years 4 weeks
Thanks: 8645 time(s)
Russian Federation


(IMG:http://metalarea.org/images/audiocovers/2019_Jul/acov_tid324741_thumb.jpg)

*Artist: No Point In Living
*Album: Last Hour Of Life
*Year: 2018
*Genre: Depressive Black Metal
*Country: Japan (IMG:http://metalarea.org/forum/style_images/flags/Japan.png)
*Format: mp3@CBR320kbps
*Size: 137MB

Tracklist:
1. Part 1 26:22
2. Part 2 33:38
******************************
Total playing time: 1:00:00



Technical info
(IMG:http://metalarea.org/images/spectrogram/2019_Jul/32970c0d8e53b468905a64866954ac83.png)
Input File: 02 - Part 2.mp3
Channels : 2
Sample Rate : 44100
Precision : 16-bit
Duration : 00:33:38.18 = 89001650 samples = 151363 CDDA sectors
File Size : 80.8M
Bit Rate : 320k
Sample Encoding: MPEG audio (layer I, II or III)
Comments :
Title=Part 2
Artist=No Point In Living
Album=Last Hour Of Life
Tracknumber=02
Year=2018
Genre=Depressive Black Metal



Register


Go to the top of the page
  Insert nick Quick quote
+Quote Post
 
Start new topic
Replies (1 - 6)
post Jul 21 2019, 21:33:47
Post #2

Group: Подсевший
Posts: 23
Releases: 0
From: indark
On Forums: 4 years 2 weeks
Thanks: 6 time(s)
Unknown


Мда, депрессив что-то слабенький, а то и просто скучная меланхоличная "люстрятина" малость сдобренная завываниями. Где разрушающие эмоции рвущие сердце на части, лютая безысходность? Нету.
Фоном, как снотворное, пойдёт.
Go to the top of the page
  Insert nick Quick quote
+Quote Post
post Jul 21 2019, 21:35:14
Post #3

Cultist
**************
Group: Металариец
Posts: 4,278
Releases: 1330
From: Koenigsberg
On Forums: 13 years 4 weeks
Thanks: 8645 time(s)
Russian Federation


ЦИТАТА(Hefir @ Jul 21 2019, 23:33:47) *
Мда, депрессив что-то слабенький, а то и просто скучная меланхоличная "люстрятина" малость сдобренная завываниями. Где разрушающие эмоции рвущие сердце на части, лютая безысходность? Нету.
Фоном, как снотворное, пойдёт.

прост последний час жизни у всех разный
Go to the top of the page
  Insert nick Quick quote
+Quote Post
post Jul 21 2019, 21:47:53
Post #4

Group: Подсевший
Posts: 23
Releases: 0
From: indark
On Forums: 4 years 2 weeks
Thanks: 6 time(s)
Unknown


ЦИТАТА(TDM @ 21st July 2019 - 21:35:14) *
прост последний час жизни у всех разный

Угу, то-то джапы наштамповали 100500 однотипных альбомов и миников.
Go to the top of the page
  Insert nick Quick quote
+Quote Post
post Jul 21 2019, 21:54:09
Post #5

Cultist
**************
Group: Металариец
Posts: 4,278
Releases: 1330
From: Koenigsberg
On Forums: 13 years 4 weeks
Thanks: 8645 time(s)
Russian Federation


ЦИТАТА(Hefir @ Jul 21 2019, 23:47:53) *
Угу, то-то джапы наштамповали 100500 однотипных альбомов и миников.

ван-мен проект

собсна, общепризнанные родоначальники депры Strid тоже не рвут душу безысходностью
Go to the top of the page
  Insert nick Quick quote
+Quote Post
post Jul 21 2019, 22:11:53
Post #6

Group: Подсевший
Posts: 23
Releases: 0
From: indark
On Forums: 4 years 2 weeks
Thanks: 6 time(s)
Unknown


ЦИТАТА(TDM @ 21st July 2019 - 21:54:09) *
ван-мен проект
ожидаемо


ЦИТАТА(TDM @ 21st July 2019 - 21:54:09) *
собсна, общепризнанные родоначальники депры Strid тоже не рвут душу безысходностью

Что ж, благодарю за возможность ознакомиться с, так сказать, восточной ветвью, мне просто по вкусу другая депра, например, те же Lyrinx бодрят нехило.
Go to the top of the page
  Insert nick Quick quote
+Quote Post
post Jul 21 2019, 22:15:31
Post #7

Cultist
**************
Group: Металариец
Posts: 4,278
Releases: 1330
From: Koenigsberg
On Forums: 13 years 4 weeks
Thanks: 8645 time(s)
Russian Federation


ЦИТАТА(Hefir @ Jul 22 2019, 00:11:53) *
ожидаемо
Что ж, благодарю за возможность ознакомиться с, так сказать, восточной ветвью, мне просто по вкусу другая депра, например, те же Lyrinx бодрят нехило.

всегда пожалста, это ж делается в интересах наполнения сайта
Go to the top of the page
  Insert nick Quick quote
+Quote Post

Reply to this topicStart new topic
1 User(s) are reading this topic (1 Guests and 0 Anonymous Users)
0 Members:

 



- Lo-Fi Version Support form
Copyrights and abuse reports form
Time is now: 24th January 2020 - 06:17:27