Welcome Guest ( Log In | Register )

> Euphoria Ω - Nanotech (2019), Thrash Metal
post Jul 21 2019, 19:12:12
Post #1

Правь статус, ####!111
**************
Group: Металариец
Posts: 19,841
Releases: 13469
From: Г.Харьков
On Forums: 7 years 7 months
Thanks: 232870 time(s)
Unknown


(IMG:https://metalarea.org/images/audiocovers/2019_Jul/acov_tid324742_thumb.jpg)

*Artist: Euphoria Ω
*Album: Nanotech
*Year: 2019
*Genre: Thrash Metal
*Country: United States (IMG:https://metalarea.org/forum/style_images/flags/United%20States.png)
*Format: mp3@CBR320kbps
*Size: 71MB

Tracklist:
1. Intro / Electro Hypnosis 05:17
2. Respawn 03:29
3. Labyrinth Online 04:45
4. Mechanical Carnivore 05:38
5. Neon Dreams 06:04
6. Brainstorm 05:10
******************************
Total playing time: 30:23




Extended info
Louie Badalament Drums
Bubba Colonna IV Guitars, Vocals
Justin Kelter Vocals, Lyrics
TJ Richardson Guitars, Vocals
Max Neal Bass


Technical info
(IMG:https://metalarea.org/images/spectrogram/2019_Jul/d141d3a30f9ff6b5a22cd90a607296db.png)
Input File: 03 - Labyrinth Online.mp3
Channels : 2
Sample Rate : 44100
Precision : 16-bit
Duration : 00:04:45.90 = 12608146 samples = 21442.4 CDDA sectors
File Size : 11.7M
Bit Rate : 327k
Sample Encoding: MPEG audio (layer I, II or III)
Comments :
Title=Labyrinth Online
Artist=Euphoria Ω
Album=Nanotech
Tracknumber=3
Year=2019



Register


Go to the top of the page
  Insert nick Quick quote
+Quote Post
 
Start new topic
Replies (1 - 5)
post Jul 21 2019, 19:36:21
Post #2

Правь статус, ####!111
**************
Group: Металариец
Posts: 19,841
Releases: 13469
From: Г.Харьков
On Forums: 7 years 7 months
Thanks: 232870 time(s)
Unknown



Cloud Mail 320
Register


Thanks:
Go to the top of the page
  Insert nick Quick quote
+Quote Post
post Jul 21 2019, 21:08:36
Post #3

Group: Подсевший
Posts: 49
Releases: 0
On Forums: 6 months 1 week
Thanks: 9 time(s)
Russian Federation


Нанотрэш (IMG:style_emoticons/default/17.gif) Ну и смесь
Go to the top of the page
  Insert nick Quick quote
+Quote Post
post Jul 21 2019, 21:09:25
Post #4

Правь статус, ####!111
**************
Group: Металариец
Posts: 44,589
Releases: 688
On Forums: 10 years 6 months
Thanks: 35864 time(s)
Russian Federation


Да кондовый трэшняк только вокал какой то придушенный.
Go to the top of the page
  Insert nick Quick quote
+Quote Post
post Jul 21 2019, 23:04:05
Post #5

Правь статус, ####!111
**************
Group: Металариец
Posts: 19,841
Releases: 13469
From: Г.Харьков
On Forums: 7 years 7 months
Thanks: 232870 time(s)
Unknown


NecroButcher,
ЦИТАТА
Нанотрэш
Нет.
NecroButcher,
ЦИТАТА
Ну и смесь

Только у тебя в голове (IMG:style_emoticons/default/bye.gif)
Go to the top of the page
  Insert nick Quick quote
+Quote Post
post Jul 22 2019, 09:55:23
Post #6

Group: Подсевший
Posts: 49
Releases: 0
On Forums: 6 months 1 week
Thanks: 9 time(s)
Russian Federation


ЦИТАТА(Samaritianin @ Jul 21 2019, 23:04:05) *
NecroButcher,
Нет.
NecroButcher,

Только у тебя в голове (IMG:style_emoticons/default/bye.gif)


как скажешь бро


Thanks:
Go to the top of the page
  Insert nick Quick quote
+Quote Post

Reply to this topicStart new topic
1 User(s) are reading this topic (1 Guests and 0 Anonymous Users)
0 Members:

 



- Lo-Fi Version Support form
Copyrights and abuse reports form
Time is now: 12th December 2019 - 17:52:17