Welcome Guest ( Log In | Register )

> Releases Upload / Добавление релизов

Добавить релиз тут / Click here to add release
Рекомендованные обменники / Recommended file shares

 
Reply to this topicStart new topic
> No Point In Living - Last Moments [ep] (2019), Depressive Black Metal
post Jul 21 2019, 19:21:50
Post #1

Cultist
**************
Group: Металариец
Posts: 3,764
Releases: 1219
From: Koenigsberg
On Forums: 12 years 7 months
Thanks: 7202 time(s)
Russian Federation


(IMG:http://metalarea.org/images/audiocovers/2019_Jul/acov_tid324744_thumb.jpg)

*Artist: No Point In Living
*Album: Last Moments [ep]
*Year: 2019
*Genre: Depressive Black Metal
*Country: Japan (IMG:http://metalarea.org/forum/style_images/flags/Japan.png)
*Format: mp3@CBR320kbps
*Size: 57MB

Tracklist:
1. Somewhere 02:12
2. Trouble 10:14
3. Midnight 10:16
******************************
Total playing time: 44:27



Technical info
(IMG:http://metalarea.org/images/spectrogram/2019_Jul/e06da12e9ba47fe7a467de21a02756bb.png)
Input File: 02 - Trouble.mp3
Channels : 2
Sample Rate : 44100
Precision : 16-bit
Duration : 00:10:14.10 = 27081678 samples = 46057.3 CDDA sectors
File Size : 24.7M
Bit Rate : 321k
Sample Encoding: MPEG audio (layer I, II or III)
Comments :
Title=Trouble
Artist=No Point In Living
Album=Last Moments EP
Tracknumber=02
Year=2019
Genre=Depressive Black Metal



Register


Go to the top of the page
  Insert nick Quick quote
+Quote Post

Reply to this topicStart new topic
1 User(s) are reading this topic (1 Guests and 0 Anonymous Users)
0 Members:

 



- Lo-Fi Version Support form
Copyrights and abuse reports form
Time is now: 19th August 2019 - 04:26:02