Welcome Guest ( Log In | Register )

 
Reply to this topicStart new topic
> No Point In Living - Mournful Christmas [single] (2017), Depressive Black Metal
post Jul 21 2019, 19:24:26
Post #1

Cultist
**************
Group: Металариец
Posts: 4,278
Releases: 1330
From: Koenigsberg
On Forums: 13 years 1 month
Thanks: 8649 time(s)
Russian Federation


(IMG:http://metalarea.org/images/audiocovers/2019_Jul/acov_tid324745_thumb.jpg)

*Artist: No Point In Living
*Album: Mournful Christmas [single]
*Year: 2017
*Genre: Depressive Black Metal
*Country: Japan (IMG:http://metalarea.org/forum/style_images/flags/Japan.png)
*Format: mp3@CBR320kbps
*Size: 22MB

Tracklist:
1. Mournful Christmas 09:31
******************************
Total playing time: 9:31



Technical info
(IMG:http://metalarea.org/images/spectrogram/2019_Jul/2dc8d2300ed040e45eaa55c9d7814835.png)
Input File: 01 - Mournful Christmas.mp3
Channels : 2
Sample Rate : 44100
Precision : 16-bit
Duration : 00:09:29.66 = 25122006 samples = 42724.5 CDDA sectors
File Size : 22.9M
Bit Rate : 322k
Sample Encoding: MPEG audio (layer I, II or III)
Comments :
Title=Mournful Christmas
Artist=No Point In Living
Album=Mournful Christmas (Single)
Tracknumber=01
Year=2017
Genre=Depressive Black Metal



Register


Go to the top of the page
  Insert nick Quick quote
+Quote Post

Reply to this topicStart new topic
1 User(s) are reading this topic (1 Guests and 0 Anonymous Users)
0 Members:

 



- Lo-Fi Version Support form
Copyrights and abuse reports form
Time is now: 26th January 2020 - 15:13:49