Welcome Guest ( Log In | Register )

 
Reply to this topicStart new topic
> No Point In Living - The Summer (2017), Depressive Black Metal
post Jul 21 2019, 19:33:50
Post #1

Cultist
**************
Group: Металариец
Posts: 4,230
Releases: 1330
From: Koenigsberg
On Forums: 12 years 11 months
Thanks: 8446 time(s)
Russian Federation


(IMG:http://metalarea.org/images/audiocovers/2019_Jul/acov_tid324749_thumb.jpg)

*Artist: No Point In Living
*Album: The Summer
*Year: 2017
*Genre: Depressive Black Metal
*Country: Japan (IMG:http://metalarea.org/forum/style_images/flags/Japan.png)
*Format: mp3@CBR320kbps
*Size: 87MB

Tracklist:
1. Sunset Glow 05:00
2. Depression and Madness 08:11
3. Rain 03:30
4. Sunflowers 05:44
5. Stars 09:01
6. Fireworks 07:14
******************************
Total playing time: 38:40



Technical info
(IMG:http://metalarea.org/images/spectrogram/2019_Jul/44fb0121308477679a8a11558db8a419.png)
Input File: 05 - Stars.mp3
Channels : 2
Sample Rate : 44100
Precision : 16-bit
Duration : 00:09:03.25 = 23957149 samples = 40743.5 CDDA sectors
File Size : 21.8M
Bit Rate : 321k
Sample Encoding: MPEG audio (layer I, II or III)
Comments :
Title=Stars
Artist=No Point In Living
Album=The Summer
Tracknumber=5
Year=2017
Genre=Depressive Black Metal



Register


Go to the top of the page
  Insert nick Quick quote
+Quote Post

Reply to this topicStart new topic
1 User(s) are reading this topic (1 Guests and 0 Anonymous Users)
0 Members:

 



- Lo-Fi Version Support form
Copyrights and abuse reports form
Time is now: 12th December 2019 - 04:23:25