Welcome Guest ( Log In | Register )

> No Point In Living - Unhappy Birthday [single] (2018), Instrumental Depressive Black Metal
post Jul 21 2019, 19:45:30
Post #1

Cultist
**************
Group: Металариец
Posts: 4,234
Releases: 1330
From: Koenigsberg
On Forums: 12 years 11 months
Thanks: 8478 time(s)
Russian Federation


(IMG:http://metalarea.org/images/audiocovers/2019_Jul/acov_tid324753_thumb.jpg)

*Artist: No Point In Living
*Album: Unhappy Birthday [single]
*Year: 2018
*Genre: Instrumental Depressive Black Metal
*Country: Japan (IMG:http://metalarea.org/forum/style_images/flags/Japan.png)
*Format: mp3@CBR320kbps
*Size: 24MB

Tracklist:
1. Unhappy Birthday 10:23
******************************
Total playing time: 10:23



Technical info
(IMG:http://metalarea.org/images/spectrogram/2019_Jul/f599001626fa08cc3bde44e919d76179.png)
Input File: 01 - Unhappy Birthday.mp3
Channels : 2
Sample Rate : 44100
Precision : 16-bit
Duration : 00:10:23.11 = 27479151 samples = 46733.2 CDDA sectors
File Size : 25.1M
Bit Rate : 322k
Sample Encoding: MPEG audio (layer I, II or III)
Comments :
Title=Unhappy Birthday
Artist=No Point In Living
Album=Unhappy Birthday (Single)
Tracknumber=01
Year=2018
Genre=Depressive Black Metal



Register


Go to the top of the page
  Insert nick Quick quote
+Quote Post
 
Start new topic
Replies (1 - 2)
post Jul 21 2019, 21:20:47
Post #2

Маньяк
**********
Group: Металариец
Posts: 1,110
Releases: 37
From: великий город Питер
On Forums: 14 years 1 day
Thanks: 1891 time(s)
Russian Federation


(IMG:http://static2.keep4u.ru/2019/07/21/ME2eIJiyRTY83404472c57ab33d.jpg)
горшочек, не вари..... (IMG:style_emoticons/default/smile1.gif)


Go to the top of the page
  Insert nick Quick quote
+Quote Post
post Jul 21 2019, 21:23:13
Post #3

Cultist
**************
Group: Металариец
Posts: 4,234
Releases: 1330
From: Koenigsberg
On Forums: 12 years 11 months
Thanks: 8478 time(s)
Russian Federation


ЦИТАТА(AlexCrazy @ Jul 21 2019, 23:20:47) *
горшочек, не вари..... (IMG:style_emoticons/default/smile1.gif)

не бубни, диско оформили (IMG:style_emoticons/default/25.gif)


Go to the top of the page
  Insert nick Quick quote
+Quote Post

Reply to this topicStart new topic
1 User(s) are reading this topic (1 Guests and 0 Anonymous Users)
0 Members:

 



- Lo-Fi Version Support form
Copyrights and abuse reports form
Time is now: 15th December 2019 - 00:48:55