Welcome Guest ( Log In | Register )

> Releases Upload / Добавление релизов

Добавить релиз тут / Click here to add release
Рекомендованные обменники / Recommended file shares

 
Reply to this topicStart new topic
> Vong - A Wander In Liminality [demo] (2019), Raw Black Metal
post Jul 21 2019, 20:36:35
Post #1

Правь статус, ####!616
**************
Group: Металариец
Posts: 4,674
Releases: 3257
From: 55°35’N 38°08’E
On Forums: 11 years 1 month
Thanks: 61277 time(s)
Unknown


(IMG:http://metalarea.org/images/audiocovers/2019_Jul/acov_tid324756_thumb.jpg)

*Artist: Vong
*Album: A Wander In Liminality [demo]
*Year: 2019
*Genre: Raw Black Metal
*Country: Vietnam (IMG:http://metalarea.org/forum/style_images/flags/Vietnam.png)
*Format: mp3@CBR320kbps
*Size: 97MB

Tracklist:
1.A Wander in Liminality 03:08
2.Lệ Chi Viên 08:01
3.Ất Dậu (Year of the Rooster) 07:09
4.Storm over the South Sea 06:03
5.The Birds Shall Carry My Bones Home 07:46
6.My Dreams of Malaria 08:00
******************************
Total playing time: 40:07




Technical info
(IMG:http://metalarea.org/images/spectrogram/2019_Jul/54f4b72a13dbbc82248999f5407ac7b9.png)
Input File: 02 Lệ Chi Viên.mp3
Channels : 2
Sample Rate : 44100
Precision : 16-bit
Duration : 00:08:01.81 = 21247645 samples = 36135.5 CDDA sectors
File Size : 19.5M
Bit Rate : 323k
Sample Encoding: MPEG audio (layer I, II or III)
Comments :
Title=Lệ Chi Viên
Artist=Vong
Album=A Wander in Liminality (Demo)
Tracknumber=2
Year=2019
Genre=Black Metal



Register


Go to the top of the page
  Insert nick Quick quote
+Quote Post

Reply to this topicStart new topic
2 User(s) are reading this topic (2 Guests and 0 Anonymous Users)
0 Members:

 



- Lo-Fi Version Support form
Copyrights and abuse reports form
Time is now: 21st August 2019 - 15:05:28