Welcome Guest ( Log In | Register )

> Releases Upload / Добавление релизов

Добавить релиз тут / Click here to add release
Рекомендованные обменники / Recommended file shares

 
Reply to this topicStart new topic
> Eternal Suffering - Beyond The Threshold Of Twilight [ep] (2017), Symphonic Black Metal (D)
post Jul 22 2019, 00:21:54
Post #1

Правь статус, ####!111
**************
Group: Металариец
Posts: 3,815
Releases: 910
From: Brazil
On Forums: 7 years 6 months
Thanks: 33924 time(s)
Brazil


(IMG:https://metalarea.org/images/audiocovers/2019_Jul/acov_tid324762_thumb.jpg)

*Artist: Eternal Suffering
*Album: Beyond The Threshold Of Twilight [ep]
*Year: 2017
*Genre: Symphonic Black Metal
*Country: Italy (IMG:https://metalarea.org/forum/style_images/flags/Italy.png)
*Format: mp3@CBR320kbps
*Size: 49MB

Tracklist:
1. Beyond the Threshold of Twilight 02:24
2. Invoking the Full Moon 06:02
3. Endless Kingdom of the Spirit 04:05
4. Forgotten Dawn 04:18
5. Reconquering the Lost Throne 04:02
******************************
Total playing time: 20:51



Extended info
Originally recorded between September and October 2009 at the Nasprias Cave in Macomer, Italy, seat of the independent label Trasponsonic.


Technical info
(IMG:https://metalarea.org/images/spectrogram/2019_Jul/47cd64c95fa007c3abaa8219097a1d0e.png)
Input File: 01 Beyond the Threshold of Twilight.mp3
Channels : 2
Sample Rate : 44100
Precision : 16-bit
Duration : 00:02:24.07 = 6353619 samples = 10805.5 CDDA sectors
File Size : 5.76M
Bit Rate : 320k
Sample Encoding: MPEG audio (layer I, II or III)
Comments :
Title=Beyond the Threshold of Twilight
Artist=Eternal Suffering
Album=Beyond the Threshold of Twilight
Tracknumber=1
Year=2017



Register


Go to the top of the page
  Insert nick Quick quote
+Quote Post

Reply to this topicStart new topic
2 User(s) are reading this topic (2 Guests and 0 Anonymous Users)
0 Members:

 



- Lo-Fi Version Support form
Copyrights and abuse reports form
Time is now: 18th August 2019 - 16:44:36