Welcome Guest ( Log In | Register )

> Releases Upload / Добавление релизов

Добавить релиз тут / Click here to add release
Рекомендованные обменники / Recommended file shares

 
Reply to this topicStart new topic
> Herbstnebel - Inner Catharsis Pt. Ii (2019), Atmospheric Black Metal
post Jul 22 2019, 00:59:16
Post #1

Правь статус, ####!111
**************
Group: Металариец
Posts: 3,815
Releases: 917
From: Brazil
On Forums: 7 years 6 months
Thanks: 33955 time(s)
Brazil


(IMG:https://metalarea.org/images/audiocovers/2019_Jul/acov_tid324768_thumb.jpg)

*Artist: Herbstnebel
*Album: Inner Catharsis Pt. Ii
*Year: 2019
*Genre: Atmospheric Black Metal
*Country: Germany (IMG:https://metalarea.org/forum/style_images/flags/Germany.png)
*Format: mp3@CBR320kbps
*Size: 94MB

Tracklist:
1. Through Life 13:56
2. Shining Black Angel 09:24
3. A Serpent's Tale 05:58
4. Wanderer Above the Stars 11:18
******************************
Total playing time: 40:36



Extended info
Lineup

G.Stalt Guitars (2005-present)
See also: Shroud of Distress (live)

Khaos Guitars, Vocals (2005-present)
See also: Ashgarden, ex-Goatcult, ex-The Evershed Effect, ex-Vehemenz, ex-Shroud of Distress (live)

A.R. Bass (2010-2014), Guitars (2014-present)
See also: ex-Shroud of Distress (live)

Northem Drums (2012-present)
See also: Ashgarden, ex-Stormfleed

Reki Bass (2014-present)
See also: ex-Helritt, ex-Surturs Lohe


Technical info
(IMG:https://metalarea.org/images/spectrogram/2019_Jul/ef42765a0f526d9965315d65e0eb7542.png)
Input File: 03 A Serpent\'s Tale.mp3
Channels : 2
Sample Rate : 44100
Precision : 16-bit
Duration : 00:05:58.08 = 15791328 samples = 26856 CDDA sectors
File Size : 14.3M
Bit Rate : 320k
Sample Encoding: MPEG audio (layer I, II or III)
Comments :
Title=A Serpent's Tale
Artist=Herbstnebel
Album=Inner Catharsis Pt. II
Tracknumber=3
Year=2019



Register


Go to the top of the page
  Insert nick Quick quote
+Quote Post

Reply to this topicStart new topic
2 User(s) are reading this topic (2 Guests and 0 Anonymous Users)
0 Members:

 



- Lo-Fi Version Support form
Copyrights and abuse reports form
Time is now: 19th August 2019 - 04:36:17