Welcome Guest ( Log In | Register )

> Releases Upload / Добавление релизов

Добавить релиз тут / Click here to add release
Рекомендованные обменники / Recommended file shares

> Howling - Howling (2019), Black Metal
post Jul 22 2019, 09:49:24
Post #1

Девять Литров
*********
Group: Металариец
Posts: 978
Releases: 817
From: Новороссийск
On Forums: 8 years 3 months
Thanks: 14366 time(s)
Russian Federation


(IMG:https://metalarea.org/images/audiocovers/2019_Jul/acov_tid324788_thumb.jpg)

*Artist: Howling
*Album: Howling
*Year: 2019
*Genre: Black Metal
*Country: United States (IMG:https://metalarea.org/forum/style_images/flags/United%20States.png)
*Format: mp3@CBR320kbps
*Size: 90MB

Tracklist:
01. Feral 01:04
02. Under The Black Wings 05:22
03. The Torchbearer 07:47
04. Ashes 07:53
05. Charred Bones Have Built These Temples 05:24
06. Exit Wounds 05:02
07. Solis Occasum 06:48
******************************
Total playing time: 39:21



Technical info
(IMG:https://metalarea.org/images/spectrogram/2019_Jul/16491367ef8d420adaf9862d212f23c8.png)
Input File: 02 Under the Black Wings.mp3
Channels : 2
Sample Rate : 44100
Precision : 16-bit
Duration : 00:05:22.08 = 14203904 samples = 24156.3 CDDA sectors
File Size : 12.9M
Bit Rate : 320k
Sample Encoding: MPEG audio (layer I, II or III)
Comments :
Title=Under the Black Wings
Artist=Howling
Album=Howling
Tracknumber=02
Year=2019
Genre=Black Metal



Register


Go to the top of the page
  Insert nick Quick quote
+Quote Post
 
Start new topic
Replies (1 - 5)
post Jul 23 2019, 11:25:49
Post #2

While Waiting the Worms
********
Group: Металариец
Posts: 859
Releases: 0
On Forums: 5 years 7 months
Thanks: 1152 time(s)
Unknown


Крепкий, уверенный стафф в духе шведской "ортодоксальной" волны начала века.
Сильное сходство с дебютником Mortuus, особенно это заметно в размеренных фрагментах, коих в альбоме немало.
Мне по вкусу.


Thanks:
(1) Altkiller,
Go to the top of the page
  Insert nick Quick quote
+Quote Post
post Jul 24 2019, 10:29:05
Post #3

кручу наждак
**************
Group: Металариец
Posts: 4,009
Releases: 97
From: Самара
On Forums: 9 years 3 months
Thanks: 2990 time(s)
Russian Federation


Не впечатлило.


Thanks:
(1) Bekkerev,
Go to the top of the page
  Insert nick Quick quote
+Quote Post
post Jul 24 2019, 14:03:46
Post #4

I hate you all
**************
Group: Металариец
Posts: 2,045
Releases: 75
From: Ukraine
On Forums: 12 years 3 months
Thanks: 5113 time(s)
Ukraine


Довольно не плохой такой альбом . Плотный звук и напор .
Go to the top of the page
  Insert nick Quick quote
+Quote Post
post Aug 3 2019, 20:49:32    Сейчас играет: Carcass - Crepitating Bowel Erosion
Post #5

antithesis
**************
Group: Металариец
Posts: 2,770
Releases: 31
From: VRN
On Forums: 9 years 3 months
Thanks: 1607 time(s)
Russian Federation


mirror, pls
Go to the top of the page
  Insert nick Quick quote
+Quote Post
post Aug 3 2019, 21:52:25
Post #6

Девять Литров
*********
Group: Металариец
Posts: 978
Releases: 817
From: Новороссийск
On Forums: 8 years 3 months
Thanks: 14366 time(s)
Russian Federation


ЦИТАТА(Razorbladeswaltz @ Aug 3 2019, 20:49:32) *
mirror, pls

Go to the top of the page
  Insert nick Quick quote
+Quote Post

Reply to this topicStart new topic
2 User(s) are reading this topic (2 Guests and 0 Anonymous Users)
0 Members:

 



- Lo-Fi Version Support form
Copyrights and abuse reports form
Time is now: 22nd August 2019 - 14:35:28