Welcome Guest ( Log In | Register )

> 

Здесь релизы с живыми прямыми ссылками на lossless

> Curse Of Denial - Coming For Your Soul (2019), Death/Black Metal
post Jul 25 2019, 12:14:28
Post #1

Serial Uploader
Group Icon
Group: V.I.P
Posts: 36,147
Releases: 34346
From: Lithuania
On Forums: 11 years 3 months
Thanks: 398355 time(s)
Lithuania


(IMG:https://metalarea.org/images/audiocovers/2019_Jul/acov_tid324899_thumb.jpg)

*Artist: Curse Of Denial
*Album: Coming For Your Soul
*Year: 2019
*Genre: Death/Black Metal
*Country: United States (IMG:https://metalarea.org/forum/style_images/flags/United%20States.png)
*Format: mp3@CBR320kbps
*Size: 150MB

Tracklist:
01. Intro - A Passage to Madness 03:05
02. In Silence 05:52
03. Day of Rage 03:41
04. The Headless Horseman 04:48
05. To Carry My Sins 04:30
06. Faceless 05:48
07. Interlude - Forseen & Forsaken 04:29
08. Coming for Your Soul 05:33
09. Dancing In a Circle of Corpses 04:11
10. Despair (Memories of a Distant Past) 05:41
11. Revival 05:44
12. Dearly Depart (Bonus Track) 11:51
******************************
Total playing time: 1:05:13





Technical info
(IMG:https://metalarea.org/images/spectrogram/2019_Jul/17205255447bad9d4d9b5c4b0c1c1a83.png)
Input File: 2 - In Silence.mp3
Channels : 2
Sample Rate : 44100
Precision : 16-bit
Duration : 00:05:52.39 = 15540179 samples = 26428.9 CDDA sectors
File Size : 14.2M
Bit Rate : 322k
Sample Encoding: MPEG audio (layer I, II or III)
Comments :
Title=In Silence
Artist=Curse of Denial
Album=Coming for Your Soul
Tracknumber=2
Year=2019
Genre=Metal
Discnumber=1



Register


Go to the top of the page
  Insert nick Quick quote
+Quote Post
 
Start new topic
Replies (1 - 2)
post Jul 26 2019, 00:49:46
Post #2

Правь статус, ####!111
**************
Group: Металариец
Posts: 18,575
Releases: 12575
From: Г.Харьков
On Forums: 7 years 4 months
Thanks: 213017 time(s)
Unknown


FLAC (Tracks) 475mb
Register


Go to the top of the page
  Insert nick Quick quote
+Quote Post
post Jul 29 2019, 13:56:27
Post #3

Crush! Kill! Destroy!
**************
Group: Металариец
Posts: 5,031
Releases: 15
From: Kaliningrad
On Forums: 11 years 10 months
Thanks: 4614 time(s)
Russian Federation


Почти альбом года! Американский лейбл жжет, сначала Carnal Tomb, теперь Curse of Denial ...
Go to the top of the page
  Insert nick Quick quote
+Quote Post

Reply to this topicStart new topic
1 User(s) are reading this topic (1 Guests and 0 Anonymous Users)
0 Members:

 



- Lo-Fi Version Support form
Copyrights and abuse reports form
Time is now: 21st September 2019 - 05:51:36