Welcome Guest ( Log In | Register )

 
Reply to this topicStart new topic
> Amogh Symphony - IV(​part 2) (2019), Experimental/Ethno/Fusion/Progressive Metal
post Jul 27 2019, 07:31:31
Post #1

слушаю тишину
**************
Group: Металариец
Posts: 2,155
Releases: 38
On Forums: 2 years 1 month
Thanks: 1838 time(s)
Russian Federation


(IMG:https://metalarea.org/images/audiocovers/2019_Jul/acov_tid324974_thumb.jpg)

*Artist: Amogh Symphony
*Album: IV(​part 2)
*Year: 2019
*Genre: Experimental/Ethno/Fusion/Progressive Metal
*Country: India (IMG:https://metalarea.org/forum/style_images/flags/India.png)
*Format: mp3@CBR320kbps
*Size: 73MB

Tracklist:
1.Cats can in Narnia 03:20
2.Birds(feat. Deep Saikia) 03:57
3.Enduring freedom since 1947(feat. Sean Reinert) 06:00
4.Draining colours from the rainbow while dancing between raindrops 05:46
5.Drone-Bomb Acharya(The Bombmaker's song) 05:19
6.Third Eye Awakening(feat. Kasturi Nath Singh) 07:48
******************************
Total playing time: 32:10



(IMG:https://metalarea.org/images/youtube.png)

Technical info
(IMG:https://metalarea.org/images/spectrogram/2019_Jul/bde73f34cd19043fd9348f8c50345f5b.png)
Input File: 02. Birds.mp3
Channels : 2
Sample Rate : 44100
Precision : 16-bit
Duration : 00:03:57.47 = 10472383 samples = 17810.2 CDDA sectors
File Size : 9.50M
Bit Rate : 320k
Sample Encoding: MPEG audio (layer I, II or III)
Comments :
Title=Birds
Artist=Amogh Symphony
Album=IV, Pt. 2
Tracknumber=2
Year=2019
Genre=Jazz
Discnumber=1



Register


Go to the top of the page
  Insert nick Quick quote
+Quote Post

Reply to this topicStart new topic
1 User(s) are reading this topic (1 Guests and 0 Anonymous Users)
0 Members:

 



- Lo-Fi Version Support form
Copyrights and abuse reports form
Time is now: 27th February 2020 - 07:55:35