Welcome Guest ( Log In | Register )

> Mørke - Melancholia (2019), Symphonic Gothic Metal
post Jul 27 2019, 17:10:48
Post #1

MDM-Thrash Metal
**************
Group: Металариец
Posts: 9,539
Releases: 866
From: Одесса
On Forums: 12 years 9 months
Thanks: 22697 time(s)
Ukraine


(IMG:http://metalarea.org/images/audiocovers/2019_Jul/acov_tid324999_thumb.jpg)

*Artist: Mørke
*Album: Melancholia
*Year: 2019
*Genre: Symphonic Gothic Metal
*Country: Norway (IMG:http://metalarea.org/forum/style_images/flags/Norway.png)
*Format: mp3@CBR320kbps
*Size: 125MB

Tracklist:
1. The Evil of Mankind 07:21
2. From Dusk to Ashes 05:18
3. Macabre 06:05
4. The Autumn Bride 04:32
5. Your Mortality 08:19
6. Sanatorium 05:53
7. Malleus Maleficarum 06:48
8. Det svarte slør 04:00
9. The Veiled Secret 06:00
******************************
Total playing time: 54:16

(IMG:http://metalarea.org/images/youtube.png)
(IMG:http://metalarea.org/images/youtube.png)
(IMG:http://metalarea.org/images/youtube.png)


Technical info
(IMG:http://metalarea.org/images/spectrogram/2019_Jul/4b70cf59f431c4ff073adaad2de57cd3.png)
Input File: 02. From Dusk to Ashes.mp3
Channels : 2
Sample Rate : 44100
Precision : 16-bit
Duration : 00:05:18.22 = 14033634 samples = 23866.7 CDDA sectors
File Size : 12.8M
Bit Rate : 322k
Sample Encoding: MPEG audio (layer I, II or III)
Comments :
Title=From Dusk to Ashes
Artist=Mørke
Album=Melancholia
Tracknumber=2/9
Year=2019
Genre=9
Discnumber=1/1



Register


Go to the top of the page
  Insert nick Quick quote
+Quote Post
 
Start new topic
Replies (1 - 5)
post Jul 28 2019, 11:53:21
Post #2

Два Литра
**
Group: Завсегдатай
Posts: 167
Releases: 3
From: Mосква,Ново-Переделкино
On Forums: 13 years 6 months
Thanks: 25 time(s)
Russian Federation


музыка то вроде норм,но баба ужасно завывает


Thanks:
(1) Xutun,
Go to the top of the page
  Insert nick Quick quote
+Quote Post
post Jul 29 2019, 06:35:55
Post #3

Азъ есн Хаос
**********
Group: Металариец
Posts: 1,483
Releases: 164
From: Россия Москва
On Forums: 13 years 4 months
Thanks: 1721 time(s)
Russian Federation


ЦИТАТА(Morbid @ Jul 28 2019, 13:53:21) *
музыка то вроде норм,но баба ужасно завывает

В защиту девушке скажу что дело будто не в ней, а в том какое место ему отведено в композициях. Походу предьявы к звуку режиссёру.
Go to the top of the page
  Insert nick Quick quote
+Quote Post
post Feb 26 2020, 13:09:30
Post #4

FOLK METAL FEVER
**************
Group: Металариец
Posts: 2,080
Releases: 6
From: Kyiv
On Forums: 12 years 6 months
Thanks: 275 time(s)
Ukraine


жесткая фальш.
Go to the top of the page
  Insert nick Quick quote
+Quote Post
post Feb 26 2020, 15:16:11
Post #5

Ледоруб
**************
Group: Металариец
Posts: 25,550
Releases: 0
From: Санкт-Петербург
On Forums: 10 years 8 months
Thanks: 8885 time(s)
Russian Federation


Значит, зря не взял альбом.
Go to the top of the page
  Insert nick Quick quote
+Quote Post
post Mar 29 2020, 22:45:59
Post #6

Попсовик от брутала
**************
Group: Металариец
Posts: 7,323
Releases: 68
From: Минск
On Forums: 11 years 6 months
Thanks: 6608 time(s)
Belarus


АААААААА
Скинули клип посмотреть. На отметке 2:20 чуть не обосрался, сначала от испуга, потом от смеха.
А вы тут над Машрумдаком потешались.


Thanks:
Go to the top of the page
  Insert nick Quick quote
+Quote Post

Reply to this topicStart new topic
2 User(s) are reading this topic (2 Guests and 0 Anonymous Users)
0 Members:

 



- Lo-Fi Version Support form
Copyrights and abuse reports form
Time is now: 5th June 2020 - 18:00:13