Welcome Guest ( Log In | Register )

> И неформату есть предел.

Рэп/хип-хоп/шансон/поп удаляются. Для них есть свои порталы.

 
Reply to this topicStart new topic
> Peasant - Unrest Eternal (2019), Hardcore (D5)
post Jul 31 2019, 06:04:16
Post #1

MDM-Thrash Metal
**************
Group: Металариец
Posts: 9,226
Releases: 771
From: Одесса
On Forums: 12 years 5 months
Thanks: 20741 time(s)
Ukraine


(IMG:http://metalarea.org/images/audiocovers/2019_Jul/acov_tid325145_thumb.jpg)

*Artist: Peasant
*Album: Unrest Eternal
*Year: 2019
*Genre: Hardcore
*Country: South Africa (IMG:http://metalarea.org/forum/style_images/flags/South%20Africa.png)
*Format: mp3@CBR320kbps
*Size: 71MB

Tracklist:
01. Life's End
02. Sirens
03. The Road
04. The Wreckage
05. Roots
06. Unrest Eternal
07. Ligature
08. Destined To Dirt
09. Earth Breaker
******************************
Total playing time: 27:58




(IMG:http://metalarea.org/images/youtube.png)

Technical info
(IMG:http://metalarea.org/images/spectrogram/2019_Jul/6621ed8994142f36d08ec69164f5f3b7.png)
Input File: 02 - Sirens.mp3
Channels : 2
Sample Rate : 44100
Precision : 16-bit
Duration : 00:01:23.36 = 3676352 samples = 6252.3 CDDA sectors
File Size : 3.73M
Bit Rate : 358k
Sample Encoding: MPEG audio (layer I, II or III)
Comments :
Title=Sirens
Artist=Peasant
Album=Unrest Eternal
Tracknumber=2
Year=2019
Genre=Hardcore
Discnumber=1



Register


Thanks:
Go to the top of the page
  Insert nick Quick quote
+Quote Post

Reply to this topicStart new topic
1 User(s) are reading this topic (1 Guests and 0 Anonymous Users)
0 Members:

 



- Lo-Fi Version Support form
Copyrights and abuse reports form
Time is now: 29th January 2020 - 16:19:43