Welcome Guest ( Log In | Register )

Объявления

* gmail.com упорно продолжает считать почту с нас "unsolicited" и отбивает в том числе и письма активации, поэтому просьба использовать альтернативные почтовые ящики.
------------
* gmail.com continues reject all mail from us as "unsolicited" (activation mails too) therefore please use alternate mail servers.

> 

Здесь релизы с живыми прямыми ссылками на lossless

> Frantic Amber - Bellatrix (2019), Melodic Death Metal
post Aug 8 2019, 12:01:40
Post #1

Serial Uploader
Group Icon
Group: V.I.P
Posts: 42,940
Releases: 41001
From: Lithuania
On Forums: 16 years 1 month
Thanks: 526951 time(s)
Lithuania


(IMG:https://metalarea.org/images/audiocovers/2019_Aug/acov_tid325480_thumb.jpg)

*Artist: Frantic Amber
*Album: Bellatrix
*Year: 2019
*Genre: Melodic Death Metal
*Country: Sweden (IMG:https://metalarea.org/forum/style_images/flags/Sweden.png)
*Format: mp3@CBR320kbps
*Size: 104MB

Tracklist:
01. Warrioress Overture 00:48
02. Scorched Earth 04:14
03. Lagertha 06:05
04. Jōshitai 05:23
05. The Ghost That Kills 05:43
06. Khutulun 06:21
07. Hunted 05:11
08. Crimson Seas 04:17
09. The Black Knight 07:27
******************************
Total playing time: 45:29

(IMG:https://metalarea.org/images/myspace.png)


Preview 4
(IMG:https://metalarea.org/images/youtube.png)

Technical info
(IMG:https://metalarea.org/images/spectrogram/2019_Aug/e9e7f35431c1cc99f4a551fe59002182.png)
Input File: 2 - Scorched Earth.mp3
Channels : 2
Sample Rate : 44100
Precision : 16-bit
Duration : 00:04:14.89 = 11240649 samples = 19116.8 CDDA sectors
File Size : 10.3M
Bit Rate : 322k
Sample Encoding: MPEG audio (layer I, II or III)
Comments :
Title=Scorched Earth
Artist=Frantic Amber
Album=Bellatrix
Tracknumber=2
Year=2019
Genre=Metal
Discnumber=1



Register


Go to the top of the page
  Insert nick Quick quote
+Quote Post
 
Start new topic
Replies (1 - 6)
post Aug 8 2019, 21:27:25
Post #2

MDM-Thrash Metal
**************
Group: Металариец
Posts: 12,524
Releases: 1748
From: Одесса
On Forums: 16 years 11 months
Thanks: 40575 time(s)
Ukraine


Go to the top of the page
  Insert nick Quick quote
+Quote Post
post Aug 9 2019, 20:15:13
Post #3

Все люди - черви.
**********
Group: Металариец
Posts: 1,232
Releases: 159
From: Пхёнъян, Северная Корея
On Forums: 11 years 6 months
Thanks: 5060 time(s)
North Korea


Фу, какой унылый альбом. Набор скучных и заезженных риффов, ни одной вменяемой мелодии. Предыдущие два альбома на фоне этого шедевры.
Go to the top of the page
  Insert nick Quick quote
+Quote Post
post Aug 10 2019, 06:47:56
Post #4

Маньяк
**********
Group: Металариец
Posts: 1,053
Releases: 0
From: Лыткарино
On Forums: 5 years 2 months
Thanks: 299 time(s)
Russian Federation


Так-то ничё, но однотипно больно.
Go to the top of the page
  Insert nick Quick quote
+Quote Post
post Aug 19 2019, 19:05:04
Post #5

балабол
**************
Group: Металариец
Posts: 2,110
Releases: 1
From: РА-река
On Forums: 13 years 3 months
Thanks: 1825 time(s)
Russian Federation


Весьма годный материал получился, довольно мелодично и не попсово. Жаль от них сексуальная гитаристка ушла, без нее группа потеряла прежнюю харизму.
Go to the top of the page
  Insert nick Quick quote
+Quote Post
post Oct 18 2020, 14:49:33
Post #6

Old School Metal
**************
Group: Металариец
Posts: 4,775
Releases: 0
From: г. Минск
On Forums: 15 years 3 months
Thanks: 13988 time(s)
Belarus



(IMG:https://d.radikal.ru/d16/2010/f8/7f5c0cdb3887.png)


Format: mp3@320kbps (Lame 3.93.1)
Register

Lossless: FLAC (tracks)
Register



Thanks:
(2) AHBAnep, Veggr,
Go to the top of the page
  Insert nick Quick quote
+Quote Post
post Jan 31 2023, 20:35:25
Post #7

Правь статус, ####!111
**************
Group: Металариец
Posts: 3,226
Releases: 0
From: д. Гадюкино
On Forums: 10 years 1 month
Thanks: 3317 time(s)
Russian Federation


FLAC (*image + .cue,log,scans)
Register


Thanks:
(1) Wail,
Go to the top of the page
  Insert nick Quick quote
+Quote Post

Reply to this topicStart new topic
1 User(s) are reading this topic (1 Guests and 0 Anonymous Users)
0 Members:

 



- Lo-Fi Version Support form
Copyrights and abuse reports form
Time is now: 15th July 2024 - 10:13:48