Welcome Guest ( Log In | Register )

> As I Lay Dying - Shaped By Fire [single] (2019), Metalcore (D)
post Aug 9 2019, 20:47:35
Post #1

MDM-Thrash Metal
**************
Group: Металариец
Posts: 12,377
Releases: 1733
From: Одесса
On Forums: 16 years 8 months
Thanks: 40301 time(s)
Ukraine


(IMG:http://metalarea.org/images/audiocovers/2019_Aug/acov_tid325524_thumb.jpg)

*Artist: As I Lay Dying
*Album: Shaped By Fire [single]
*Year: 2019
*Genre: Metalcore
*Country: United States (IMG:http://metalarea.org/forum/style_images/flags/United%20States.png)
*Format: mp3@CBR320kbps
*Size: 9MB

Tracklist:
01. Shaped By Fire 03:38
******************************
Total playing time: 3:38

(IMG:http://metalarea.org/images/youtube.png)


Extended info
20 Сентября выходит новый альбом!


Technical info
(IMG:http://metalarea.org/images/spectrogram/2019_Aug/03cc7c3f33d4c1be805ed3e3e50349e0.png)
Input File: AILD - Shaped By Fire.mp3
Channels : 2
Sample Rate : 44100
Precision : 16-bit
Duration : 00:03:38.53 = 9637129 samples = 16389.7 CDDA sectors
File Size : 9.94M
Bit Rate : 364k
Sample Encoding: MPEG audio (layer I, II or III)
Comments :
Title=Shaped by Fire
Artist=As I Lay Dying
Album=Shaped by Fire
Tracknumber=1
Year=2019
Genre=Metalcore
Discnumber=1/1



Register


Go to the top of the page
  Insert nick Quick quote
+Quote Post
 
Start new topic
Replies (1 - 10)
post Aug 10 2019, 12:29:15
Post #2

Правь статус, ####!111
**************
Group: Металариец
Posts: 55,773
Releases: 1187
On Forums: 14 years 10 months
Thanks: 54502 time(s)
Russian Federation


В пятерке самых известных металкорных групп.
Go to the top of the page
  Insert nick Quick quote
+Quote Post
post Aug 10 2019, 12:32:16
Post #3
BAN
Banned till
May 9 2024, 18:47:08



ЦИТАТА(vosmidesijatye @ 10th August 2019 - 14:29:15) *
В пятерке самых известных металкорных групп.

Спасибо за очередную ненужную информацию.


Thanks:
Go to the top of the page
  Insert nick Quick quote
+Quote Post
post Aug 10 2019, 12:59:34
Post #4

Мегаманьяк
***********
Group: Металариец
Posts: 1,779
Releases: 34
From: -за леса,из-за гор
On Forums: 13 years 6 months
Thanks: 2219 time(s)
Russian Federation


ЦИТАТА(vosmidesijatye @ Aug 10 2019, 14:29:15) *
В пятерке самых известных металкорных групп.

London is the capital of Great Britain


Thanks:
Go to the top of the page
  Insert nick Quick quote
+Quote Post
Anger
post Aug 10 2019, 13:07:25
Post #5

Guests team






слушал это дерьмо раньше. альбом '2005 лежит на диске
Go to the top of the page
  Insert nick Quick quote
+Quote Post
post Aug 10 2019, 13:13:00
Post #6
BAN
Banned till
May 9 2024, 18:47:08



ЦИТАТА(Anger @ 10th August 2019 - 15:07:25) *
слушал это дерьмо раньше. альбом '2005 лежит на диске


ЦИТАТА(6666666 @ 10th August 2019 - 14:32:16) *
Спасибо за очередную ненужную информацию.

Go to the top of the page
  Insert nick Quick quote
+Quote Post
post Aug 10 2019, 13:56:34
Post #7

на 1/3 БМЗ
*********
Group: Металариец
Posts: 942
Releases: 105
From: Санкт-Петербург
On Forums: 17 years 4 weeks
Thanks: 4048 time(s)
Russian Federation


А вокалиста ж вроде в тюрачку сажали? Или тут другой?
Go to the top of the page
  Insert nick Quick quote
+Quote Post
post Aug 10 2019, 14:09:32
Post #8
BAN
Banned till
May 9 2024, 18:47:08



ЦИТАТА(Johnix @ Aug 10 2019, 15:56:34) *
А вокалиста ж вроде в тюрачку сажали? Или тут другой?

Этот.
Go to the top of the page
  Insert nick Quick quote
+Quote Post
post Aug 10 2019, 14:13:12
Post #9

Литр
*
Group: Подсевший
Posts: 81
Releases: 5
On Forums: 5 years 2 months
Thanks: 221 time(s)
Ukraine


ЦИТАТА(Johnix @ Aug 10 2019, 17:56:34) *
А вокалиста ж вроде в тюрачку сажали? Или тут другой?

Ага сажали, знаменитая история когда он пошел к полицейскому под прикрытием заказывать свою жену. Он уже просто срок отсидел и вышел.
Go to the top of the page
  Insert nick Quick quote
+Quote Post
post Aug 10 2019, 16:25:03
Post #10

Все люди - черви.
**********
Group: Металариец
Posts: 1,232
Releases: 159
From: Пхёнъян, Северная Корея
On Forums: 11 years 3 months
Thanks: 5048 time(s)
North Korea


Самая слабая песня пока что из всех представленных.
Go to the top of the page
  Insert nick Quick quote
+Quote Post
post Aug 11 2019, 14:22:57
Post #11

Правь статус, ####!111
**************
Group: Металариец
Posts: 55,773
Releases: 1187
On Forums: 14 years 10 months
Thanks: 54502 time(s)
Russian Federation


ЦИТАТА(dalek @ Aug 10 2019, 17:13:12) *
Ага сажали, знаменитая история когда он пошел к полицейскому под прикрытием заказывать свою жену.


Вот что с людьми металкор делает. (IMG:style_emoticons/default/1488.gif)



Thanks:
(1) Ghostb,
Go to the top of the page
  Insert nick Quick quote
+Quote Post

Reply to this topicStart new topic
2 User(s) are reading this topic (2 Guests and 0 Anonymous Users)
0 Members:

 



- Lo-Fi Version Support form
Copyrights and abuse reports form
Time is now: 19th April 2024 - 23:46:57