Welcome Guest ( Log In | Register )

Объявления

* gmail.com упорно продолжает считать почту с нас "unsolicited" и отбивает в том числе и письма активации, поэтому просьба использовать альтернативные почтовые ящики.
------------
* gmail.com continues reject all mail from us as "unsolicited" (activation mails too) therefore please use alternate mail servers.
> Funeral Oration - Eliphas Love (2019), Black Metal
post Aug 9 2019, 23:46:55
Post #1

Правь статус, ####!111
**************
Group: Металариец
Posts: 5,173
Releases: 1568
From: Brazil
On Forums: 12 years 4 months
Thanks: 64317 time(s)
Brazil


(IMG:https://metalarea.org/images/audiocovers/2019_Aug/acov_tid325525_thumb.jpg)

*Artist: Funeral Oration
*Album: Eliphas Love
*Year: 2019
*Genre: Black Metal
*Country: Italy (IMG:https://metalarea.org/forum/style_images/flags/Italy.png)
*Format: mp3@CBR320kbps
*Size: 86MB

Tracklist:
1. Intro 02:50
2. Furor eretico 04:37
3. Anatema di Zos 08:01
4. L'abisso 04:08
5. Marcia funebre 05:48
6. Tregenda 06:24
7. Vuoto mistico 05:05
******************************
Total playing time: 36:53



Technical info
(IMG:https://metalarea.org/images/spectrogram/2019_Aug/f4f581f748858145f6f332dbef6bdd33.png)
Input File: 02 Furor eretico.mp3
Channels : 2
Sample Rate : 44100
Precision : 16-bit
Duration : 00:04:37.07 = 12218787 samples = 20780.2 CDDA sectors
File Size : 11.1M
Bit Rate : 320k
Sample Encoding: MPEG audio (layer I, II or III)
Comments :
Title=Furor eretico
Artist=Funeral Oration
Album=Eliphas Love
Tracknumber=2
Year=2019



Register


Go to the top of the page
  Insert nick Quick quote
+Quote Post
 
Start new topic
Replies (1 - 8)
post Aug 10 2019, 08:07:36
Post #2

⏸⏹/⏏ ⏪⏩◀⏺
*******
Group: Металариец
Posts: 745
Releases: 2
From: Уругвай ёпта.
On Forums: 17 years 4 months
Thanks: 224 time(s)
Uruguay


В корзину.
Go to the top of the page
  Insert nick Quick quote
+Quote Post
post Aug 10 2019, 11:01:11
Post #3

Ретроград
**************
Group: Металариец
Posts: 5,491
Releases: 213
On Forums: 17 years 6 days
Thanks: 9413 time(s)
Vatican City


Во блин, явились не запылились...
Go to the top of the page
  Insert nick Quick quote
+Quote Post
post Aug 10 2019, 11:45:05
Post #4

Правь статус, ####!111
**************
Group: Металариец
Posts: 7,385
Releases: 0
On Forums: 16 years 3 months
Thanks: 14215 time(s)
Sudan




Thanks:
Go to the top of the page
  Insert nick Quick quote
+Quote Post
post Aug 10 2019, 15:15:09
Post #5

Четыре Литра
****
Group: Металариец
Posts: 388
Releases: 0
From: Kyiv
On Forums: 12 years 2 months
Thanks: 159 time(s)
Ukraine


ого. камбэк дидов.
Go to the top of the page
  Insert nick Quick quote
+Quote Post
post Aug 13 2019, 16:10:24
Post #6

Common dweller of hell
**************
Group: Металариец
Posts: 5,445
Releases: 12
From: Dnipro
On Forums: 15 years 11 months
Thanks: 2207 time(s)
Ukraine


ЦИТАТА(kessler @ Aug 10 2019, 17:15:09) *
ого. камбэк дидов.

Тех что воевали за дучо?
Go to the top of the page
  Insert nick Quick quote
+Quote Post
post Aug 13 2019, 16:34:20
Post #7

Common dweller of hell
**************
Group: Металариец
Posts: 5,445
Releases: 12
From: Dnipro
On Forums: 15 years 11 months
Thanks: 2207 time(s)
Ukraine


На земляков из Abhor похожи. С первого взгляда кажется мусором, но после двух-трех песен затягивает, очень не дурно.
Go to the top of the page
  Insert nick Quick quote
+Quote Post
post Aug 14 2019, 20:19:35
Post #8

Бери пустое и переливай в порожнее
*****
Group: Металариец
Posts: 433
Releases: 3
On Forums: 15 years 5 months
Thanks: 116 time(s)
Ukraine


по превью очень годно, по музыке на Abyssos какой нибуть похоже, или даже Ancient, ранний, правда на итальянсом языке (IMG:style_emoticons/default/smile1.gif)
скорее сюда нужно добавить Melodic Black metal. Очень интересная музыка по звучанию и записи с какого нибуть 1993-1998 годов
Go to the top of the page
  Insert nick Quick quote
+Quote Post
post Oct 24 2022, 05:59:13
Post #9

Crush! Kill! Destroy!
**************
Group: Металариец
Posts: 5,788
Releases: 15
From: Kaliningrad
On Forums: 16 years 7 months
Thanks: 5462 time(s)
Russian Federation


FLAC, please?
Go to the top of the page
  Insert nick Quick quote
+Quote Post

Reply to this topicStart new topic
1 User(s) are reading this topic (1 Guests and 0 Anonymous Users)
0 Members:

 



- Lo-Fi Version Support form
Copyrights and abuse reports form
Time is now: 24th June 2024 - 07:13:36