Welcome Guest ( Log In | Register )

> Nattesorg - Walk Before The Living (2019), Unblack Metal
post Aug 14 2019, 12:41:38
Post #1

Serial Uploader
Group Icon
Group: V.I.P
Posts: 36,609
Releases: 34797
From: Lithuania
On Forums: 11 years 6 months
Thanks: 407400 time(s)
Lithuania


(IMG:https://metalarea.org/images/audiocovers/2019_Aug/acov_tid325688_thumb.jpg)

*Artist: Nattesorg
*Album: Walk Before The Living
*Year: 2019
*Genre: Unblack Metal
*Country: Norway (IMG:https://metalarea.org/forum/style_images/flags/Norway.png)
*Format: mp3@CBR320kbps
*Size: 156MB

Tracklist:
01. Beginning to the End 06:49
02. Are Already Dead 07:15
03. Sacrifice of Fools 05:07
04. Sorrow and Wrath 06:23
05. Covered with Darkness 07:27
06. Walk Before the Living 06:49
07. Fear No Evil Thing 06:51
08. Upon the Earth 05:59
09. Upon the Son of Man 05:07
10. Hour Is Not yet Come 04:38
11. Filled Them Up to the Brim 06:04
******************************
Total playing time: 1:08:29

(IMG:https://metalarea.org/images/myspace.png)



(IMG:https://metalarea.org/images/youtube.png)

Technical info
(IMG:https://metalarea.org/images/spectrogram/2019_Aug/f97cf46f17f45ab4f646e51fef561d70.png)
Input File: 2.Are Already Dead.mp3
Channels : 2
Sample Rate : 44100
Precision : 16-bit
Duration : 00:07:14.10 = 19143942 samples = 32557.7 CDDA sectors
File Size : 17.4M
Bit Rate : 320k
Sample Encoding: MPEG audio (layer I, II or III)
Comments :
Title=Are Already Dead
Artist=Nattesorg
Album=Walk Before The Living
Tracknumber=2
Year=2019
Genre=Black Metal



Register


Go to the top of the page
  Insert nick Quick quote
+Quote Post
 
Start new topic
Replies (1 - 4)
post Aug 15 2019, 03:58:45
Post #2

Group: Подсевший
Posts: 40
Releases: 0
On Forums: 11 months 3 weeks
Thanks: 7 time(s)
Russian Federation


Это что, альбом-шутка? Получилась "музыка" без музыки.
Go to the top of the page
  Insert nick Quick quote
+Quote Post
post Aug 15 2019, 14:52:14
Post #3

Group: Подсевший
Posts: 49
Releases: 0
On Forums: 6 months 1 week
Thanks: 9 time(s)
Russian Federation


ЦИТАТА(necroscum @ Aug 14 2019, 12:41:38) *
*Genre: Unblack Metal

(IMG:style_emoticons/default/crazy.gif)
Из любопытства послушаю
Go to the top of the page
  Insert nick Quick quote
+Quote Post
post Aug 16 2019, 14:57:50
Post #4

Два Литра
**
Group: Завсегдатай
Posts: 188
Releases: 0
From: Лыткарино
On Forums: 7 months 2 days
Thanks: 44 time(s)
Russian Federation


ЦИТАТА(Sanctus @ Aug 15 2019, 07:58:45) *
Это что, альбом-шутка? Получилась "музыка" без музыки.

А это у христианского блэка постоянно так бывает (IMG:style_emoticons/default/25.gif)
Go to the top of the page
  Insert nick Quick quote
+Quote Post
post Aug 16 2019, 20:21:10
Post #5

Leegte
***********
Group: Металариец
Posts: 1,589
Releases: 14
From: Kiovia
On Forums: 7 years 7 months
Thanks: 2268 time(s)
Ukraine


Бессмысленный гитарный христозуд.
Go to the top of the page
  Insert nick Quick quote
+Quote Post

Reply to this topicStart new topic
1 User(s) are reading this topic (1 Guests and 0 Anonymous Users)
0 Members:

 



- Lo-Fi Version Support form
Copyrights and abuse reports form
Time is now: 12th December 2019 - 17:41:47