Welcome Guest ( Log In | Register )

> Veneraxiom - Intercurse [ep] (2019), Black/Death Metal
post Aug 14 2019, 12:45:19
Post #1

Правь статус, ####!111
**************
Group: Металариец
Posts: 19,792
Releases: 13423
From: Г.Харьков
On Forums: 7 years 6 months
Thanks: 232253 time(s)
Unknown


(IMG:http://metalarea.org/images/audiocovers/2019_Aug/acov_tid325689_thumb.jpg)

*Artist: Veneraxiom
*Album: Intercurse [ep]
*Year: 2019
*Genre: Black/Death Metal
*Country: United States (IMG:http://metalarea.org/forum/style_images/flags/United%20States.png)
*Format: mp3@CBR320kbps
*Size: 45MB

Tracklist:
1. Nefarious Possession 05:29
2. Triad of the Hidden Tongues 03:23
3. Image of the Beast 05:29
4. Deified Infinity through Chaosmic Death 06:34
******************************
Total playing time: 20:55




Extended info
J. Chains - Guitar/Vocals
J. Vessel - Bass/ Vocals
J. Tomb - Drums


Technical info
(IMG:http://metalarea.org/images/spectrogram/2019_Aug/1eb0f98603fcc17344da61fff850e8e7.png)
Input File: 03 Image of the Beast.mp3
Channels : 1
Sample Rate : 44100
Precision : 16-bit
Duration : 00:05:30.05 = 14555161 samples = 24753.7 CDDA sectors
File Size : 13.4M
Bit Rate : 324k
Sample Encoding: MPEG audio (layer I, II or III)
Comments :
Title=Image of the Beast
Artist=Veneraxiom
Album=Intercurse - EP
Tracknumber=3
Year=2019



Register


Go to the top of the page
  Insert nick Quick quote
+Quote Post
 
Start new topic
Replies (1 - 2)
post Aug 14 2019, 19:55:49
Post #2

De Mysteriis Dom Sathanas
**************
Group: Металариец
Posts: 3,752
Releases: 63
From: Doom
On Forums: 11 years 4 months
Thanks: 3165 time(s)
Russian Federation


Каша какая-то
Go to the top of the page
  Insert nick Quick quote
+Quote Post
post Aug 22 2019, 10:56:10
Post #3

Group: Дух
Posts: 2
Releases: 0
On Forums: 3 months 2 weeks
Thanks: 2 time(s)
Russian Federation


Благодарю. Хрен найдёшь.
Go to the top of the page
  Insert nick Quick quote
+Quote Post

Reply to this topicStart new topic
1 User(s) are reading this topic (1 Guests and 0 Anonymous Users)
0 Members:

 



- Lo-Fi Version Support form
Copyrights and abuse reports form
Time is now: 8th December 2019 - 17:52:30