Welcome Guest ( Log In | Register )

> Releases Upload / Добавление релизов

Добавить релиз тут / Click here to add release
Рекомендованные обменники / Recommended file shares

> Nattesorg - From The Mountain (2018), Unblack Metal
post Aug 14 2019, 12:50:13
Post #1

Serial Uploader
Group Icon
Group: V.I.P
Posts: 35,871
Releases: 34078
From: Lithuania
On Forums: 11 years 2 months
Thanks: 393720 time(s)
Lithuania


(IMG:https://metalarea.org/images/audiocovers/2019_Aug/acov_tid325690_thumb.jpg)

*Artist: Nattesorg
*Album: From The Mountain
*Year: 2018
*Genre: Unblack Metal
*Country: Norway (IMG:https://metalarea.org/forum/style_images/flags/Norway.png)
*Format: mp3@CBR320kbps
*Size: 150MB

Tracklist:
01. Out Of The Tombs 07:06
02. The Hands Of Men 08:06
03. The Third Day 06:23
04. From The Mountain 05:19
05. Knowing Their Hypocrisy 08:31
06. Suffer Many Things 05:41
07. Hear The Voice 06:21
08. God And Savior 05:06
09. Glorifying Christ 06:55
10. Old Life Is Gone 06:24
******************************
Total playing time: 1:05:52

(IMG:https://metalarea.org/images/myspace.png)




Technical info
(IMG:https://metalarea.org/images/spectrogram/2019_Aug/0664ea5743b5085579e9c33f8f1c10eb.png)
Input File: 02 Delivered into the Hands of Men.mp3
Channels : 2
Sample Rate : 44100
Precision : 16-bit
Duration : 00:08:06.80 = 21467660 samples = 36509.6 CDDA sectors
File Size : 19.5M
Bit Rate : 320k
Sample Encoding: MPEG audio (layer I, II or III)
Comments :
Title=Delivered into the Hands of Men
Artist=Nattesorg
Album=From the Mountain
Tracknumber=2/10
Year=2018
Genre=Black Metal
Discnumber=1/1



Register


Go to the top of the page
  Insert nick Quick quote
+Quote Post
 
Start new topic
Replies (1 - 1)
post Aug 14 2019, 19:53:47
Post #2

De Mysteriis Dom Sathanas
**************
Group: Металариец
Posts: 3,615
Releases: 63
From: Москва
On Forums: 11 years 1 month
Thanks: 3051 time(s)
Russian Federation


Христианин-многостаночник


Thanks:
(1) Occultas,
Go to the top of the page
  Insert nick Quick quote
+Quote Post

Reply to this topicStart new topic
1 User(s) are reading this topic (1 Guests and 0 Anonymous Users)
0 Members:

 



- Lo-Fi Version Support form
Copyrights and abuse reports form
Time is now: 24th August 2019 - 03:43:42