Welcome Guest ( Log In | Register )

> Exes For Eyes - Of Strength And Sorrow (2019), Groove Metal
post Aug 14 2019, 13:17:05
Post #1

Serial Uploader
Group Icon
Group: V.I.P
Posts: 36,867
Releases: 35053
From: Lithuania
On Forums: 11 years 7 months
Thanks: 412096 time(s)
Lithuania


(IMG:https://metalarea.org/images/audiocovers/2019_Aug/acov_tid325692_thumb.jpg)

*Artist: Exes For Eyes
*Album: Of Strength And Sorrow
*Year: 2019
*Genre: Groove Metal
*Country: Canada (IMG:https://metalarea.org/forum/style_images/flags/Canada.png)
*Format: mp3@CBR320kbps
*Size: 150MB

Tracklist:
01. Build, Work, Dream, Create
02. Memories That Last
03. The Metal
04. Nothing Ever Satisfies
05. The Fire Inside My Head (feat. Trey Xavier)
06. Set It All on Fire
07. The Savage Self
08. I Miss My Friends (Too Many of Them Are Dead)
09. Hold on (I. Not Alone, II. Stronger Than This)
10. True Self Reckoning
11. Love (feat. Pepe Poliquin)
12. Get the Fuck Out of My Head
13. Methuselah
******************************
Total playing time: 1:05:16

(IMG:https://metalarea.org/images/myspace.png)



(IMG:https://metalarea.org/images/youtube.png)

Technical info
(IMG:https://metalarea.org/images/spectrogram/2019_Aug/8d0b07a7bb12c4246fc97808601df38a.png)
Input File: 02. Memories That Last.mp3
Channels : 2
Sample Rate : 44100
Precision : 16-bit
Duration : 00:03:21.81 = 8899821 samples = 15135.8 CDDA sectors
File Size : 8.16M
Bit Rate : 323k
Sample Encoding: MPEG audio (layer I, II or III)
Comments :
Title=Memories That Last
Artist=Exes for Eyes
Album=Of Strength and Sorrow
Tracknumber=2/13
Year=2019
Genre=9
Discnumber=1/1



Register


Go to the top of the page
  Insert nick Quick quote
+Quote Post
 
Start new topic
Replies (1 - 1)
post Aug 15 2019, 05:13:25
Post #2

Четыре Литра
****
Group: Металариец
Posts: 308
Releases: 0
From: Ташкент
On Forums: 11 years 11 months
Thanks: 83 time(s)
Uzbekistan


Лично я рад, например. Превьюха тоже понравилась. Дебютник был очень хороший, второй альбом послабже. Надеюсь, третьим альбомом выровнят ситуацию.
Go to the top of the page
  Insert nick Quick quote
+Quote Post

Reply to this topicStart new topic
1 User(s) are reading this topic (1 Guests and 0 Anonymous Users)
0 Members:

 



- Lo-Fi Version Support form
Copyrights and abuse reports form
Time is now: 28th January 2020 - 02:24:03