Welcome Guest ( Log In | Register )

> Superior Stream - Reflection (2019), Progressive Metal
post Aug 14 2019, 13:28:16
Post #1

Serial Uploader
Group Icon
Group: V.I.P
Posts: 36,586
Releases: 34775
From: Lithuania
On Forums: 11 years 6 months
Thanks: 407149 time(s)
Lithuania


(IMG:https://metalarea.org/images/audiocovers/2019_Aug/acov_tid325693_thumb.jpg)

*Artist: Superior Stream
*Album: Reflection
*Year: 2019
*Genre: Progressive Metal
*Country: Serbia (IMG:https://metalarea.org/forum/style_images/flags/Serbia.png)
*Format: mp3@CBR320kbps
*Size: 127MB

Tracklist:
01. Last Bus Home 06:10
02. Reflection 06:46
03. Arranging Thoughts 05:35
04. Krv Prokleta (Blood Damned) 07:42
05. What's Within? 06:02
06. Distant Silent Sky 02:13
07. Endless 04:16
08. Dreamyard 11:16
09. A Relief 05:38
******************************
Total playing time: 55:38



(IMG:https://metalarea.org/images/youtube.png)

Technical info
(IMG:https://metalarea.org/images/spectrogram/2019_Aug/b8f6c168acec344461e1726d6294c353.png)
Input File: 03 - Arranging Thoughts.mp3
Channels : 2
Sample Rate : 44100
Precision : 16-bit
Duration : 00:05:35.38 = 14790302 samples = 25153.6 CDDA sectors
File Size : 13.4M
Bit Rate : 320k
Sample Encoding: MPEG audio (layer I, II or III)
Comments :
Title=Arranging Thoughts
Artist=Superior Stream
Album=Reflection
Tracknumber=3
Year=2019
Genre=Metal
Discnumber=1



Register


Go to the top of the page
  Insert nick Quick quote
+Quote Post
 
Start new topic
Replies (1 - 2)
post Aug 14 2019, 17:50:36
Post #2

Пять Литров
*****
Group: Металариец
Posts: 438
Releases: 0
On Forums: 12 years 11 months
Thanks: 57 time(s)
Russian Federation


Запись альбома производилась в жестяном ведре.
Go to the top of the page
  Insert nick Quick quote
+Quote Post
post Aug 15 2019, 14:49:57
Post #3

Group: Подсевший
Posts: 49
Releases: 0
On Forums: 6 months 1 week
Thanks: 9 time(s)
Russian Federation


ЦИТАТА(KLOP @ Aug 14 2019, 17:50:36) *
Запись альбома производилась в жестяном ведре.

А создание и редактирование обложки на телефоне 10-летней давности.
Go to the top of the page
  Insert nick Quick quote
+Quote Post

Reply to this topicStart new topic
1 User(s) are reading this topic (1 Guests and 0 Anonymous Users)
0 Members:

 



- Lo-Fi Version Support form
Copyrights and abuse reports form
Time is now: 8th December 2019 - 17:42:52