Welcome Guest ( Log In | Register )

> Various Artists - Garde Noire [compilation] (2019), Black Metal/Dark Ambient
post Aug 14 2019, 13:30:21
Post #1

Правь статус, ####!111
**************
Group: Металариец
Posts: 4,039
Releases: 1036
From: Brazil
On Forums: 7 years 10 months
Thanks: 38419 time(s)
Brazil


(IMG:https://metalarea.org/images/audiocovers/2019_Aug/acov_tid325694_thumb.jpg)

*Artist: Various Artists
*Album: Garde Noire [compilation]
*Year: 2019
*Genre: Black Metal/Dark Ambient
*Country: Many (IMG:https://metalarea.org/forum/style_images/flags/Many.png)
*Format: mp3@VBR248kbps
*Size: 123MB

Tracklist:
1. Nözaakr - Nigrum Blasphemiam 07:11
2. Mürmurio - Poiou Perfide 08:27
3. Morteharas - Somnambulistik Agonie 06:14
4. Mörmbrztröm - Vita Fallariam 06:14
5. Atrium Malum - Ad Portem Tenebrarum 06:06
6. Mörmoo - Angoisses Funèbres 07:12
7. Vzörbrëzv - Mind Destuction 08:48
8. Concordia Diaboli - Nuit Tragique 08:12
9. Sräthr Kraïhuas - Decadence Of The Spirit 08:55
******************************
Total playing time: 1:07:19

Extended info
Les Fleurs du Mal Productions

GARDE NOIRE collective compilation. True cult french black metal/ritual ambient inspired by Les Légions Noires and Abruptum! 9 exclusive songs from Nözaakr, Mörmoo, MörmbrztröM, Mürmurio, Morteharas, Atrium Malum, VzörbrëzV, Concordia Diaboli & Sräthr Kraïhuas.

Limited to 100 hand numbered copies.


Technical info
(IMG:https://metalarea.org/images/spectrogram/2019_Aug/3444ae74ace513299d0d25228a4f678a.png)
Input File: B4. Sräthr Kraïhuas - Decadence Of The Spirit.mp3
Channels : 2
Sample Rate : 44100
Precision : 16-bit
Duration : 00:08:55.64 = 23621724 samples = 40173 CDDA sectors
File Size : 17.7M
Bit Rate : 264k
Sample Encoding: MPEG audio (layer I, II or III)
Comments :
Title=Decadence Of The Spirit
Artist=Sräthr Kraïhuas
Album=Garde Noire
Tracknumber=9/9
Year=2019
Genre=Black Metal
Discnumber=1/1



Register


Go to the top of the page
  Insert nick Quick quote
+Quote Post
 
Start new topic
Replies (1 - 5)
post Aug 15 2019, 06:54:19
Post #2

Два Литра
**
Group: Завсегдатай
Posts: 191
Releases: 5
On Forums: 7 years 9 months
Thanks: 271 time(s)
Ukraine


Most of the tracks are too raw for me but the last two tracks are good. Thanks!
Go to the top of the page
  Insert nick Quick quote
+Quote Post
post Aug 15 2019, 08:43:32
Post #3

Правь статус, ####!111
**************
Group: Металариец
Posts: 4,039
Releases: 1036
From: Brazil
On Forums: 7 years 10 months
Thanks: 38419 time(s)
Brazil


apparently another rip:
Register

mp3@VBR250kbps
Tape-rip by ZeroThePenguin


Go to the top of the page
  Insert nick Quick quote
+Quote Post
post Oct 11 2019, 20:56:04
Post #4


**************
Group: Металариец
Posts: 2,143
Releases: 14
From: Казань
On Forums: 10 years 2 months
Thanks: 2829 time(s)
Russian Federation


Начните Слушать Это без Остановки и пауз. От Начала и До Конца. Этот неимоверный сплав сакральной Меланхолии и Строгих стяжательных дисциплин - воздаст Вам по настоящему Сумеречное состояние Сознания! Перенеситесь в средние века, посетите эти места . Места проклятых и Забытых, Места загубленных тысячами в казематах и замурованных Заживо. Посетите средневековый жертвенник, места Изоляции, где были распяты и насажены на кол. Места Буйства истории, места Буйства Трагедии и массовых помешательств. Вы наследуйте часть того Богатства, что Привнес в себе этот манускрипт канонизированных Псалмов .


Thanks:
Go to the top of the page
  Insert nick Quick quote
+Quote Post
post Oct 11 2019, 20:59:27
Post #5

Правь статус, ####!111
**************
Group: Металариец
Posts: 44,478
Releases: 687
On Forums: 10 years 6 months
Thanks: 35814 time(s)
Russian Federation


Обязательно ознскомлюсь, спасибо!
Go to the top of the page
  Insert nick Quick quote
+Quote Post
post Nov 10 2019, 12:42:27
Post #6

antithesis
**************
Group: Металариец
Posts: 2,879
Releases: 32
From: VRN
On Forums: 9 years 6 months
Thanks: 1728 time(s)
Russian Federation


по большей части - несусветное г0вн0. в треках Angoisses Funèbres и Decadence Of The Spirit проглядывает казематный пи3дец, ветер горя и пожирающая тьма, остальное - шлак и мусор.
Go to the top of the page
  Insert nick Quick quote
+Quote Post

Reply to this topicStart new topic
1 User(s) are reading this topic (1 Guests and 0 Anonymous Users)
0 Members:

 



- Lo-Fi Version Support form
Copyrights and abuse reports form
Time is now: 8th December 2019 - 17:58:57