Welcome Guest ( Log In | Register )

> Releases Upload / Добавление релизов

Добавить релиз тут / Click here to add release
Рекомендованные обменники / Recommended file shares

> Various Artists - Garde Noire [compilation] (2019), Black Metal/Dark Ambient
post Aug 14 2019, 13:30:21
Post #1

Правь статус, ####!111
**************
Group: Металариец
Posts: 3,808
Releases: 909
From: Brazil
On Forums: 7 years 6 months
Thanks: 33898 time(s)
Brazil


(IMG:https://metalarea.org/images/audiocovers/2019_Aug/acov_tid325694_thumb.jpg)

*Artist: Various Artists
*Album: Garde Noire [compilation]
*Year: 2019
*Genre: Black Metal/Dark Ambient
*Country: Many (IMG:https://metalarea.org/forum/style_images/flags/Many.png)
*Format: mp3@VBR248kbps
*Size: 123MB

Tracklist:
1. Nözaakr - Nigrum Blasphemiam 07:11
2. Mürmurio - Poiou Perfide 08:27
3. Morteharas - Somnambulistik Agonie 06:14
4. Mörmbrztröm - Vita Fallariam 06:14
5. Atrium Malum - Ad Portem Tenebrarum 06:06
6. Mörmoo - Angoisses Funèbres 07:12
7. Vzörbrëzv - Mind Destuction 08:48
8. Concordia Diaboli - Nuit Tragique 08:12
9. Sräthr Kraïhuas - Decadence Of The Spirit 08:55
******************************
Total playing time: 1:07:19

Extended info
Les Fleurs du Mal Productions

GARDE NOIRE collective compilation. True cult french black metal/ritual ambient inspired by Les Légions Noires and Abruptum! 9 exclusive songs from Nözaakr, Mörmoo, MörmbrztröM, Mürmurio, Morteharas, Atrium Malum, VzörbrëzV, Concordia Diaboli & Sräthr Kraïhuas.

Limited to 100 hand numbered copies.


Technical info
(IMG:https://metalarea.org/images/spectrogram/2019_Aug/3444ae74ace513299d0d25228a4f678a.png)
Input File: B4. Sräthr Kraïhuas - Decadence Of The Spirit.mp3
Channels : 2
Sample Rate : 44100
Precision : 16-bit
Duration : 00:08:55.64 = 23621724 samples = 40173 CDDA sectors
File Size : 17.7M
Bit Rate : 264k
Sample Encoding: MPEG audio (layer I, II or III)
Comments :
Title=Decadence Of The Spirit
Artist=Sräthr Kraïhuas
Album=Garde Noire
Tracknumber=9/9
Year=2019
Genre=Black Metal
Discnumber=1/1



Register


Go to the top of the page
  Insert nick Quick quote
+Quote Post
 
Start new topic
Replies (1 - 2)
post Aug 15 2019, 06:54:19
Post #2

Два Литра
**
Group: Завсегдатай
Posts: 143
Releases: 4
On Forums: 7 years 5 months
Thanks: 174 time(s)
Ukraine


Most of the tracks are too raw for me but the last two tracks are good. Thanks!
Go to the top of the page
  Insert nick Quick quote
+Quote Post
post Aug 15 2019, 08:43:32
Post #3

Правь статус, ####!111
**************
Group: Металариец
Posts: 3,808
Releases: 909
From: Brazil
On Forums: 7 years 6 months
Thanks: 33898 time(s)
Brazil


apparently another rip:
Register

mp3@VBR250kbps
Tape-rip by ZeroThePenguin


Go to the top of the page
  Insert nick Quick quote
+Quote Post

Reply to this topicStart new topic
1 User(s) are reading this topic (1 Guests and 0 Anonymous Users)
0 Members:

 



- Lo-Fi Version Support form
Copyrights and abuse reports form
Time is now: 17th August 2019 - 22:47:48