Welcome Guest ( Log In | Register )

 
Reply to this topicStart new topic
> The Myriad - Constructing Oblivion [ep] (2019), Progressive Metal
post Aug 14 2019, 13:57:54
Post #1

Serial Uploader
Group Icon
Group: V.I.P
Posts: 35,871
Releases: 34078
From: Lithuania
On Forums: 11 years 2 months
Thanks: 393724 time(s)
Lithuania


(IMG:https://metalarea.org/images/audiocovers/2019_Aug/acov_tid325695_thumb.jpg)

*Artist: The Myriad
*Album: Constructing Oblivion [ep]
*Year: 2019
*Genre: Progressive Metal
*Country: United States (IMG:https://metalarea.org/forum/style_images/flags/United%20States.png)
*Format: mp3@CBR320kbps
*Size: 39MB

Tracklist:
01. Chasmwalker 02:13
02. Beacon 03:44
03. Obsidian 04:06
04. Sextant 03:36
05. Empyrean 03:29
******************************
Total playing time: 17:08


(IMG:https://metalarea.org/images/youtube.png)

Technical info
(IMG:https://metalarea.org/images/spectrogram/2019_Aug/473b116a645d39cae01a5af877c94ce3.png)
Input File: 05. Empyrean.mp3
Channels : 2
Sample Rate : 44100
Precision : 16-bit
Duration : 00:03:29.60 = 9243140 samples = 15719.6 CDDA sectors
File Size : 8.44M
Bit Rate : 322k
Sample Encoding: MPEG audio (layer I, II or III)
Comments :
Title=Empyrean
Artist=The Myriad
Album=Constructing Oblivion
Tracknumber=5/5
Year=2019
Genre=9
Discnumber=1/1



Register


Go to the top of the page
  Insert nick Quick quote
+Quote Post

Reply to this topicStart new topic
1 User(s) are reading this topic (1 Guests and 0 Anonymous Users)
0 Members:

 



- Lo-Fi Version Support form
Copyrights and abuse reports form
Time is now: 24th August 2019 - 04:37:44