Welcome Guest ( Log In | Register )

> Releases Upload / Добавление релизов

Добавить релиз тут / Click here to add release
Рекомендованные обменники / Recommended file shares

> *Lionsmane - Tranquil [ep] (2019), Deathcore
post Aug 14 2019, 14:11:46
Post #1

Serial Uploader
Group Icon
Group: V.I.P
Posts: 35,871
Releases: 34078
From: Lithuania
On Forums: 11 years 2 months
Thanks: 393718 time(s)
Lithuania


(IMG:https://metalarea.org/images/audiocovers/2019_Aug/acov_tid325696_thumb.jpg)

*Artist: *Lionsmane
*Album: Tranquil [ep]
*Year: 2019
*Genre: Deathcore
*Country: United States (IMG:https://metalarea.org/forum/style_images/flags/United%20States.png)
*Format: mp3@CBR320kbps
*Size: 35MB

Tracklist:
01. Apophis
02. Let's Prey (Feat. Lil Volumes)
03. Head Space
04. Souther Helle
05. The Simulation
06. Beta God
******************************
Total playing time: 15:13



Technical info
(IMG:https://metalarea.org/images/spectrogram/2019_Aug/a356a7a8d4099d3c073047835631f881.png)
Input File: 05. The Simulation.mp3
Channels : 2
Sample Rate : 44100
Precision : 16-bit
Duration : 00:03:18.91 = 8771931 samples = 14918.2 CDDA sectors
File Size : 8.04M
Bit Rate : 323k
Sample Encoding: MPEG audio (layer I, II or III)
Comments :
Title=The Simulation
Artist=*Lionsmane
Album=Tranquil
Tracknumber=5/6
Year=2019
Genre=9
Discnumber=1/1



Register


Go to the top of the page
  Insert nick Quick quote
+Quote Post
 
Start new topic
Replies (1 - 3)
post Aug 14 2019, 18:28:20
Post #2

Семь Литров
*******
Group: Металариец
Posts: 742
Releases: 0
From: Черкассы
On Forums: 7 years 8 months
Thanks: 99 time(s)
Ukraine


Вообще не формат
metalarea меняет ориентацию? (IMG:style_emoticons/default/6.gif)
Go to the top of the page
  Insert nick Quick quote
+Quote Post
post Aug 14 2019, 19:37:14
Post #3

Group: Подсевший
Posts: 44
Releases: 16
On Forums: 2 years 6 months
Thanks: 379 time(s)
Unknown


ЦИТАТА(krotovich @ Aug 14 2019, 18:28:20) *
Вообще не формат
metalarea меняет ориентацию? (IMG:style_emoticons/default/6.gif)

Deathcore тут всегда был форматом.
Go to the top of the page
  Insert nick Quick quote
+Quote Post
post Aug 14 2019, 20:19:56
Post #4

Экскадрилия Утуггофф. УУУ...ЖЖЖ...
**********
Group: Металариец
Posts: 1,324
Releases: 0
From: н.п. Большие Утюги
On Forums: 6 years 5 months
Thanks: 427 time(s)
Russian Federation


Чёт совсем несуразное, по ходу. В ВК не находит. Через Бэндкамп вообще не слушается, никакие плэеры не эквализуют звук, ёлы-палы. (IMG:style_emoticons/default/13.gif)
Go to the top of the page
  Insert nick Quick quote
+Quote Post

Reply to this topicStart new topic
1 User(s) are reading this topic (1 Guests and 0 Anonymous Users)
0 Members:

 



- Lo-Fi Version Support form
Copyrights and abuse reports form
Time is now: 24th August 2019 - 03:13:25