Welcome Guest ( Log In | Register )

> Releases Upload / Добавление релизов

Добавить релиз тут / Click here to add release
Рекомендованные обменники / Recommended file shares

> Freitag - Freitag (2019), Death/Thrash Metal
post Aug 14 2019, 16:15:04
Post #1

Правь статус, ####!111
**************
Group: Металариец
Posts: 18,200
Releases: 12307
From: Г.Харьков
On Forums: 7 years 3 months
Thanks: 207430 time(s)
Unknown


(IMG:http://metalarea.org/images/audiocovers/2019_Aug/acov_tid325704_thumb.jpg)

*Artist: Freitag
*Album: Freitag
*Year: 2019
*Genre: Death/Thrash Metal
*Country: United States (IMG:http://metalarea.org/forum/style_images/flags/United%20States.png)
*Format: mp3@CBR320kbps
*Size: 104MB

Tracklist:
1. Cancerous 04:39
2. Ears Closed Mouth Open 02:52
3. Speed 02:59
4. Descent 02:24
5. The Filth 02:56
6. A Life of Constant Torment 02:54
7. Forebearer of the Forgotten Flame 02:57
8. Super Devil 02:08
9. Power of the Gods 04:18
10. The Human Condition 03:36
11. Galactus 03:19
12. Lumbering Giants 02:40
13. The Cycle That Never Ends 03:39
14. Until Death (Life) 04:12
******************************
Total playing time: 45:33



Technical info
(IMG:http://metalarea.org/images/spectrogram/2019_Aug/859a8c70b33787568c8df1aa00ffb8a2.png)
Input File: 03 Speed.mp3
Channels : 2
Sample Rate : 44100
Precision : 16-bit
Duration : 00:02:59.45 = 7913657 samples = 13458.6 CDDA sectors
File Size : 7.18M
Bit Rate : 320k
Sample Encoding: MPEG audio (layer I, II or III)
Comments :
Title=Speed
Artist=Freitag
Album=Freitag
Tracknumber=3
Year=2019
Genre=Death Metal



Register


Go to the top of the page
  Insert nick Quick quote
+Quote Post
 
Start new topic
Replies (1 - 1)
post Aug 15 2019, 01:25:43
Post #2

Правь статус, ####!111
**************
Group: Металариец
Posts: 18,200
Releases: 12307
From: Г.Харьков
On Forums: 7 years 3 months
Thanks: 207430 time(s)
Unknown


Cloud Mail 320
Register


Go to the top of the page
  Insert nick Quick quote
+Quote Post

Reply to this topicStart new topic
1 User(s) are reading this topic (1 Guests and 0 Anonymous Users)
0 Members:

 



- Lo-Fi Version Support form
Copyrights and abuse reports form
Time is now: 24th August 2019 - 03:13:28