Welcome Guest ( Log In | Register )

> Releases Upload / Добавление релизов

Добавить релиз тут / Click here to add release
Рекомендованные обменники / Recommended file shares

> Mortius - Shepherding The Weak [ep] (2019), Death/Thrash Metal
post Aug 14 2019, 16:35:38
Post #1

Правь статус, ####!111
**************
Group: Металариец
Posts: 18,200
Releases: 12307
From: Г.Харьков
On Forums: 7 years 3 months
Thanks: 207430 time(s)
Unknown


(IMG:http://metalarea.org/images/audiocovers/2019_Aug/acov_tid325705_thumb.jpg)

*Artist: Mortius
*Album: Shepherding The Weak [ep]
*Year: 2019
*Genre: Death/Thrash Metal
*Country: United States (IMG:http://metalarea.org/forum/style_images/flags/United%20States.png)
*Format: mp3@CBR320kbps
*Size: 30MB

Tracklist:
1. Old Grave 05:56
2. Spitting Death 04:01
3. Shepherding the Weak 02:53
******************************
Total playing time: 12:50




Extended info
Chris Austin Bass, Vocals
Zeth Gaines Drums
Austin Strobel Vocals (backing), Guitars
Jeff Bender Guitars


Technical info
(IMG:http://metalarea.org/images/spectrogram/2019_Aug/0159e08c0f775a5364bb407feea70df9.png)
Input File: 02 Spitting Death.mp3
Channels : 2
Sample Rate : 44100
Precision : 16-bit
Duration : 00:04:01.12 = 10633524 samples = 18084.2 CDDA sectors
File Size : 9.77M
Bit Rate : 324k
Sample Encoding: MPEG audio (layer I, II or III)
Comments :
Title=Spitting Death
Artist=Mortius
Album=Shepherding the Weak
Tracknumber=2
Year=2019



Register


Go to the top of the page
  Insert nick Quick quote
+Quote Post
 
Start new topic
Replies (1 - 1)
post Aug 15 2019, 14:53:27
Post #2

Group: Подсевший
Posts: 35
Releases: 0
On Forums: 2 months 3 weeks
Thanks: 7 time(s)
Russian Federation


Прочитал как Mortiis и чуть сердце не ёкнуло
Go to the top of the page
  Insert nick Quick quote
+Quote Post

Reply to this topicStart new topic
1 User(s) are reading this topic (1 Guests and 0 Anonymous Users)
0 Members:

 



- Lo-Fi Version Support form
Copyrights and abuse reports form
Time is now: 24th August 2019 - 03:15:21