Welcome Guest ( Log In | Register )

> Releases Upload / Добавление релизов

Добавить релиз тут / Click here to add release
Рекомендованные обменники / Recommended file shares

> Cremator - La Isla Del Diablo (2019), Heavy/Thrash Metal
post Aug 14 2019, 18:22:22
Post #1

Правь статус, ####!111
**************
Group: Металариец
Posts: 18,200
Releases: 12307
From: Г.Харьков
On Forums: 7 years 3 months
Thanks: 207430 time(s)
Unknown


(IMG:http://metalarea.org/images/audiocovers/2019_Aug/acov_tid325706_thumb.jpg)

*Artist: Cremator
*Album: La Isla Del Diablo
*Year: 2019
*Genre: Heavy/Thrash Metal
*Country: United States (IMG:http://metalarea.org/forum/style_images/flags/United%20States.png)
*Format: mp3@CBR320kbps
*Size: 135MB

Tracklist:
1. La isla del diablo 04:51
2. The Divine and the Demonic 04:42
3. Blood Eye 03:54
4. A Night of Broken Glass 05:38
5. Am I 06:32
6. A Telescopic Tale 05:16
7. When My Words Have Failed 07:00
8. The Hour Glass 04:41
9. Prophecies of the Three Witches 05:38
10. A Bridge to Nowhere 09:15
11. The Wise Shall Understand 06:28
******************************
Total playing time: 1:03:55



Extended info
Ralph Mendez Drums, Percussion, Keyboards (1997-present)
See also: Shining Force
Richard Navarro Guitars (1997-present)
See also: Shining Force
Victor Ramirez Bass (2011-present)
Jason Miesse Vocals (lead) (2011-present)


Technical info
(IMG:http://metalarea.org/images/spectrogram/2019_Aug/21663dc77ba9021a17e9b9f9612620d6.png)
Input File: 03. Blood Eye.mp3
Channels : 2
Sample Rate : 44100
Precision : 16-bit
Duration : 00:03:54.31 = 10332983 samples = 17573.1 CDDA sectors
File Size : 9.45M
Bit Rate : 323k
Sample Encoding: MPEG audio (layer I, II or III)
Comments :
Title=Blood Eye
Artist=Cremator
Album=La Isla Del Diablo
Tracknumber=3/11
Year=2019
Genre=9
Discnumber=1/1



Register


Go to the top of the page
  Insert nick Quick quote
+Quote Post
 
Start new topic
Replies (1 - 1)
post Aug 15 2019, 01:27:26
Post #2

Правь статус, ####!111
**************
Group: Металариец
Posts: 18,200
Releases: 12307
From: Г.Харьков
On Forums: 7 years 3 months
Thanks: 207430 time(s)
Unknown


Cloud Mail 320
Register


Thanks:
Go to the top of the page
  Insert nick Quick quote
+Quote Post

Reply to this topicStart new topic
1 User(s) are reading this topic (1 Guests and 0 Anonymous Users)
0 Members:

 



- Lo-Fi Version Support form
Copyrights and abuse reports form
Time is now: 24th August 2019 - 03:25:21