Welcome Guest ( Log In | Register )

 
Reply to this topicStart new topic
> Various Artists - Marijuanaut Vol​.​v [compilation] (2018), Psychedelic Stoner/Sludge/Doom Metal/Heavy Psych (D2137)
post Aug 14 2019, 19:24:41
Post #1

Правь статус, ####!111
**************
Group: Металариец
Posts: 44,478
Releases: 687
On Forums: 10 years 6 months
Thanks: 35814 time(s)
Russian Federation


(IMG:http://metalarea.org/images/audiocovers/2019_Aug/acov_tid325708_thumb.jpg)

*Artist: Various Artists
*Album: Marijuanaut Vol​.​v [compilation]
*Year: 2018
*Genre: Psychedelic Stoner/Sludge/Doom Metal/Heavy Psych
*Country: Italy (IMG:http://metalarea.org/forum/style_images/flags/Italy.png)
*Format: mp3@CBR320kbps
*Size: 249MB

Tracklist:
1. Greenthumb - The Black Court 05:37
2. Mr Bison - Sacred Deal 04:17
3. LORØ - Last Gone 06:01
4. Sabbia - Manichini 07:14
5. Messa - Leah 08:09
6. The Turin Horse - The Light That Failed 06:26
7. Killer Boogie - Escape From Reality 03:05
8. John Malkovitch! - Nadir 14:32
9. Go!Zilla - Peeling Clouds 03:52
10. Tons - Sailin' the Seas of Buddha Cheese 08:55
11. Suum - Black Mist 04:40
12. Haunted - Mourning Sun 08:44
13. Organ - Aidel 08:58
14. Satori Junk - The Golden Dwarf 10:00
15. Sherpa - Descent of Inanna to the Underworld 07:43
******************************
Total playing time: 1:48:13



Technical info
(IMG:http://metalarea.org/images/spectrogram/2019_Aug/e15b7641d0328cd0cc45cc09ceb61a0f.png)
Input File: Go!Zilla - Marijuanaut Vol.V - 09 Peeling Clouds.mp3
Channels : 2
Sample Rate : 44100
Precision : 16-bit
Duration : 00:03:52.24 = 10241828 samples = 17418.1 CDDA sectors
File Size : 9.50M
Bit Rate : 327k
Sample Encoding: MPEG audio (layer I, II or III)
Comments :
Title=Peeling Clouds
Artist=Go!Zilla
Album=Marijuanaut Vol.V
Tracknumber=9
Year=2018



Register


Go to the top of the page
  Insert nick Quick quote
+Quote Post

Reply to this topicStart new topic
1 User(s) are reading this topic (1 Guests and 0 Anonymous Users)
0 Members:

 



- Lo-Fi Version Support form
Copyrights and abuse reports form
Time is now: 8th December 2019 - 17:00:39