Welcome Guest ( Log In | Register )

> Releases Upload / Добавление релизов

Добавить релиз тут / Click here to add release
Рекомендованные обменники / Recommended file shares

 
Reply to this topicStart new topic
> Various Artists - Marijuanaut Vol​.​iv [compilation] (2017), Psychedelic Stoner/Sludge/Doom Metal/Heavy Psych (D2137)
post Aug 14 2019, 19:51:02
Post #1

Правь статус, ####!111
**************
Group: Металариец
Posts: 42,462
Releases: 644
On Forums: 10 years 2 months
Thanks: 33322 time(s)
Russian Federation


(IMG:http://metalarea.org/images/audiocovers/2019_Aug/acov_tid325710_thumb.jpg)

*Artist: Various Artists
*Album: Marijuanaut Vol​.​iv [compilation]
*Year: 2017
*Genre: Psychedelic Stoner/Sludge/Doom Metal/Heavy Psych
*Country: Italy (IMG:http://metalarea.org/forum/style_images/flags/Italy.png)
*Format: mp3@CBR320kbps
*Size: 307MB

Tracklist:
1. Black Capricorn - Evil Horde of Lucifer 06:47
2. Otehi - Naked God 09:57
3. Zolle - UnDoom 05:50
4. Valerian Swing - Seven Cliffs 05:30
5. L'Ira del Baccano - Abilene 11:21
6. Deadsmoke - Endless Cave 06:46
7. Da Captain Trips - Mother Earth 09:46
8. Nudist - Bloody Waters 04:59
9. Sator - Ordeal 09:26
10. Last Minute to Jaffna - Cold Ground of Changing 11:21
11. Tuna De Tierra - Laguna 09:26
12. La Cuenta - Della Madre Divorata (live) 10:40
13. Zolfo - Floaters 07:20
14. Nibiru - Bahal Gah 16:39
15. L'Albero del Veleno - Morpheus 06:15
******************************
Total playing time: 2:12:03



Technical info
(IMG:http://metalarea.org/images/spectrogram/2019_Aug/aba92903d977d576d04395f6b0a937f1.png)
Input File: Black Capricorn - Marijuanaut Vol.IV - 01 Evil Horde of Lucifer.mp3
Channels : 2
Sample Rate : 44100
Precision : 16-bit
Duration : 00:06:47.22 = 17958358 samples = 30541.4 CDDA sectors
File Size : 16.5M
Bit Rate : 325k
Sample Encoding: MPEG audio (layer I, II or III)
Comments :
Title=Evil Horde of Lucifer
Artist=Black Capricorn
Album=Marijuanaut Vol.IV
Tracknumber=1
Year=2017



Register


Go to the top of the page
  Insert nick Quick quote
+Quote Post

Reply to this topicStart new topic
1 User(s) are reading this topic (1 Guests and 0 Anonymous Users)
0 Members:

 



- Lo-Fi Version Support form
Copyrights and abuse reports form
Time is now: 24th August 2019 - 03:19:11