Welcome Guest ( Log In | Register )

> Releases Upload / Добавление релизов

Добавить релиз тут / Click here to add release
Рекомендованные обменники / Recommended file shares

> Hot Graves - Hell Has Returned Again [compilation] (2019), Death/Black/Thrash Metal/Crust (D)
post Aug 14 2019, 20:07:31
Post #1

Serial Uploader
Group Icon
Group: V.I.P
Posts: 35,871
Releases: 34078
From: Lithuania
On Forums: 11 years 2 months
Thanks: 393719 time(s)
Lithuania


(IMG:http://metalarea.org/images/audiocovers/2019_Aug/acov_tid325711_thumb.jpg)

*Artist: Hot Graves
*Album: Hell Has Returned Again [compilation]
*Year: 2019
*Genre: Death/Black/Thrash Metal/Crust
*Country: United States (IMG:http://metalarea.org/forum/style_images/flags/United%20States.png)
*Format: mp3@CBR320kbps
*Size: 54MB

Tracklist:
01. Desecration Time 04:30
02. Baphomet's Revenge 03:10
03. Make My Day (Anti Cimex Cover) 01:28
04. Revenge Lust 02:03
05. This Is For You 02:35
06. Metalblaster 01:36
07. Fuck Ü / Ü Suck 01:15
08. Follow Yr Dreams 01:43
09. Out Ov Time 01:39
10. Fashion Victim 02:40
******************************
Total playing time: 22:39



Technical info
(IMG:http://metalarea.org/images/spectrogram/2019_Aug/f1a415eaa95a503518a0cf1d4b3615d6.png)
Input File: 02. Baphomet\'s Revenge.mp3
Channels : 2
Sample Rate : 44100
Precision : 16-bit
Duration : 00:03:10.47 = 8399815 samples = 14285.4 CDDA sectors
File Size : 8.28M
Bit Rate : 348k
Sample Encoding: MPEG audio (layer I, II or III)
Comments :
Title=Baphomet's Revenge
Artist=Hot Graves
Album=Hell Has Returned Again
Tracknumber=2/9
Year=2019



Register


Go to the top of the page
  Insert nick Quick quote
+Quote Post
 
Start new topic
Replies (1 - 1)
post Aug 15 2019, 08:44:34
Post #2

Пять Литров
*****
Group: Металариец
Posts: 408
Releases: 15
From: Подольск
On Forums: 10 years 2 months
Thanks: 490 time(s)
Russian Federation


спасиба!
задорные дядьки (IMG:style_emoticons/default/metaler.gif) (IMG:style_emoticons/default/banana.gif) (IMG:style_emoticons/default/dwarf-1.gif)
Go to the top of the page
  Insert nick Quick quote
+Quote Post

Reply to this topicStart new topic
1 User(s) are reading this topic (1 Guests and 0 Anonymous Users)
0 Members:

 



- Lo-Fi Version Support form
Copyrights and abuse reports form
Time is now: 24th August 2019 - 03:29:33