Welcome Guest ( Log In | Register )

> Releases Upload / Добавление релизов

Добавить релиз тут / Click here to add release
Рекомендованные обменники / Recommended file shares

 
Reply to this topicStart new topic
> Various Artists - Marijuanaut Vol​.​iii [compilation] (2016), Psychedelic Stoner/Sludge/Doom Metal/Heavy Psych (D2137)
post Aug 14 2019, 20:16:12
Post #1

Правь статус, ####!111
**************
Group: Металариец
Posts: 42,462
Releases: 644
On Forums: 10 years 2 months
Thanks: 33322 time(s)
Russian Federation


(IMG:http://metalarea.org/images/audiocovers/2019_Aug/acov_tid325713_thumb.jpg)

*Artist: Various Artists
*Album: Marijuanaut Vol​.​iii [compilation]
*Year: 2016
*Genre: Psychedelic Stoner/Sludge/Doom Metal/Heavy Psych
*Country: Italy (IMG:http://metalarea.org/forum/style_images/flags/Italy.png)
*Format: mp3@CBR320kbps
*Size: 255MB

Tracklist:
1. Zippo - After Us 03:43
2. Ornaments - Prometheus 09:01
3. Pater Nembrot - Architeuthis 10:10
4. Arcana 13 - Dread Ritual 07:09
5. Karl Marx Was a Broker - Ego 03:31
6. Varego - Dominion 06:53
7. Otus - Theta Synchrony 11:29
8. Woodwall - Miracle Blood 06:05
9. Messa - Blood 10:25
10. MoRkObOt - KROMOT 03:39
11. Istvan - Kenosis 10:00
12. Sdang! - Astronomica 05:02
13. Marlon Brando - Shelter 06:40
14. tomydeepestego - Tetra 03:37
15. Diana Spencer Grave Explosion - Long Death to the Horizon 12:55
******************************
Total playing time: 1:50:19



Technical info
(IMG:http://metalarea.org/images/spectrogram/2019_Aug/66dd7f8dbee190ad00fcdb08fdae605b.png)
Input File: Arcana 13 - Marijuanaut Vol.III - 04 Dread Ritual.mp3
Channels : 2
Sample Rate : 44100
Precision : 16-bit
Duration : 00:07:09.42 = 18937598 samples = 32206.8 CDDA sectors
File Size : 17.3M
Bit Rate : 322k
Sample Encoding: MPEG audio (layer I, II or III)
Comments :
Title=Dread Ritual
Artist=Arcana 13
Album=Marijuanaut Vol.III
Tracknumber=4
Year=2016



Register


Go to the top of the page
  Insert nick Quick quote
+Quote Post

Reply to this topicStart new topic
1 User(s) are reading this topic (1 Guests and 0 Anonymous Users)
0 Members:

 



- Lo-Fi Version Support form
Copyrights and abuse reports form
Time is now: 24th August 2019 - 03:51:18