Welcome Guest ( Log In | Register )

> Releases Upload / Добавление релизов

Добавить релиз тут / Click here to add release
Рекомендованные обменники / Recommended file shares

 
Reply to this topicStart new topic
> Various Artists - Marijuanaut Vol​.​ii [compilation] (2015), Psychedelic Stoner/Sludge/Doom Metal/Heavy Psych (D2137)
post Aug 14 2019, 20:48:43
Post #1

Правь статус, ####!111
**************
Group: Металариец
Posts: 42,462
Releases: 644
On Forums: 10 years 2 months
Thanks: 33322 time(s)
Russian Federation


(IMG:http://metalarea.org/images/audiocovers/2019_Aug/acov_tid325714_thumb.jpg)

*Artist: Various Artists
*Album: Marijuanaut Vol​.​ii [compilation]
*Year: 2015
*Genre: Psychedelic Stoner/Sludge/Doom Metal/Heavy Psych
*Country: Italy (IMG:http://metalarea.org/forum/style_images/flags/Italy.png)
*Format: mp3@CBR320kbps
*Size: 300MB

Tracklist:
1. Isaak - Lesson N.1 03:44
2. Doomraiser - Addiction 07:37
3. Black Rainbows - Hawkdope 08:57
4. Grime - Decay In Hades 03:47
5. Sunpocrisy - Kairos Through Aion 08:29
6. My Home On Trees - My Home On Trees 07:48
7. Giöbia - Sun Spectre 15:00
8. Satori Junk - Lord Of The Pigs 09:18
9. Fabio Cuomo - Return To Planet Zero 14:56
10. Void Of Sleep - Ordo Ab Chao 05:25
11. Humulus - Glider 04:58
12. OssO - Squirter 03:47
13. IZŌ - We Are What We Are 07:31
14. Three Eyes Left - Beyond The Mountain 07:58
15. Nibiru - Khem 20:50
******************************
Total playing time: 2:10:05



Technical info
(IMG:http://metalarea.org/images/spectrogram/2019_Aug/5637268ff7cc9bc3a847f482672e4045.png)
Input File: Black Rainbows - Marijuanaut Vol.II - 03 Hawkdope.mp3
Channels : 2
Sample Rate : 44100
Precision : 16-bit
Duration : 00:08:57.39 = 23699075 samples = 40304.5 CDDA sectors
File Size : 21.7M
Bit Rate : 323k
Sample Encoding: MPEG audio (layer I, II or III)
Comments :
Title=Hawkdope
Artist=Black Rainbows
Album=Marijuanaut Vol.II
Tracknumber=3
Year=2015



Register


Go to the top of the page
  Insert nick Quick quote
+Quote Post

Reply to this topicStart new topic
1 User(s) are reading this topic (1 Guests and 0 Anonymous Users)
0 Members:

 



- Lo-Fi Version Support form
Copyrights and abuse reports form
Time is now: 24th August 2019 - 04:02:21