Welcome Guest ( Log In | Register )

> Releases Upload / Добавление релизов

Добавить релиз тут / Click here to add release
Рекомендованные обменники / Recommended file shares

 
Reply to this topicStart new topic
> Various Artists - Marijuanaut Vol​.​i [compilation] (2014), Psychedelic Stoner/Sludge/Doom Metal/Heavy Psych (D2137)
post Aug 14 2019, 21:15:57
Post #1

Правь статус, ####!111
**************
Group: Металариец
Posts: 42,462
Releases: 644
On Forums: 10 years 2 months
Thanks: 33322 time(s)
Russian Federation


(IMG:http://metalarea.org/images/audiocovers/2019_Aug/acov_tid325715_thumb.jpg)

*Artist: Various Artists
*Album: Marijuanaut Vol​.​i [compilation]
*Year: 2014
*Genre: Psychedelic Stoner/Sludge/Doom Metal/Heavy Psych
*Country: Italy (IMG:http://metalarea.org/forum/style_images/flags/Italy.png)
*Format: mp3@CBR320kbps
*Size: 290MB

Tracklist:
CD1

1. Killer Boogie - My Queen (Inedito) 03:09
2. L'Ira Del Baccano - The Infinite Improbability Drive PT.1 13:14
3. Eremite - Drift Away 09:33
4. Otehi - Psychonaut In The Forest 09:00
5. Kröwnn - Wyvernking 08:19
6. Atomic Mold - Never Heard (Inedito) 10:44
7. Lili Refrain - Baptism of Fire 04:57
8. DSW - The Giant (Inedito - Live version) 07:09

CD2

1. Anuseye - Push Magic Button 08:33
2. Black Capricorn - Hammer of the Witches 07:16
3. Liquido Di Morte - In Death Of Space / Of Death In Space 10:32
4. Obake - Seven Rotten Globes 04:25
5. Prehistoric Pigs - Zug (Inedito) 04:03
6. Naga - Hēn 11:38
7. Orion - Builders of Cosmos (Inedito) 06:20
8. The Haunting Green - The Mournful Sons 07:38
******************************
Total playing time: 2:06:30




Technical info
(IMG:http://metalarea.org/images/spectrogram/2019_Aug/ee2337b690bad71be2fe2aeff9f3df26.png)
Input File: Atomic Mold - Marijuanaut Vol.I - CD1 - 06 Never Heard (Inedito).mp3
Channels : 2
Sample Rate : 44100
Precision : 16-bit
Duration : 00:10:45.03 = 28445603 samples = 48376.9 CDDA sectors
File Size : 26.0M
Bit Rate : 323k
Sample Encoding: MPEG audio (layer I, II or III)
Comments :
Title=Never Heard (Inedito)
Artist=Atomic Mold
Album=Marijuanaut Vol.I - CD1
Tracknumber=6
Year=2014



Register


Go to the top of the page
  Insert nick Quick quote
+Quote Post

Reply to this topicStart new topic
1 User(s) are reading this topic (1 Guests and 0 Anonymous Users)
0 Members:

 



- Lo-Fi Version Support form
Copyrights and abuse reports form
Time is now: 24th August 2019 - 04:13:00