Welcome Guest ( Log In | Register )

> Releases Upload / Добавление релизов

Добавить релиз тут / Click here to add release
Рекомендованные обменники / Recommended file shares

 
Reply to this topicStart new topic
> Rotten Hate - Stabbing The Masses (2019), Death Metal/Crust
post Aug 15 2019, 02:45:42
Post #1

Правь статус, ####!111
**************
Group: Металариец
Posts: 18,201
Releases: 12307
From: Г.Харьков
On Forums: 7 years 3 months
Thanks: 207438 time(s)
Unknown


(IMG:https://metalarea.org/images/audiocovers/2019_Aug/acov_tid325716_thumb.jpg)

*Artist: Rotten Hate
*Album: Stabbing The Masses
*Year: 2019
*Genre: Death Metal/Crust
*Country: Chile (IMG:https://metalarea.org/forum/style_images/flags/Chile.png)
*Format: mp3@CBR320kbps
*Size: 76MB

Tracklist:
1. Abyss 01:02
2. Church 02:38
3. Vultures 05:20
4. Shooting 03:49
5. Saints 01:58
6. Bloodshed 03:33
7. Perpetual 03:15
8. Delirium 00:40
9. Breaking 02:34
10. Buitres 05:46
******************************
Total playing time: 30:35




Extended info
Manuel V. Bass
See also: Ruined, Soul's Pyre, The Black Harvest
Lino C. Drums
David Briones Vocals, Guitars (2016-present)
See also: Son in Curse, The Black Harvest, ex-Regnum et Mortem


Technical info
(IMG:https://metalarea.org/images/spectrogram/2019_Aug/b23e2b772d2744141753121f10a27040.png)
Input File: 03 - Vultures.mp3
Channels : 2
Sample Rate : 44100
Precision : 16-bit
Duration : 00:05:21.12 = 14161304 samples = 24083.9 CDDA sectors
File Size : 13.5M
Bit Rate : 335k
Sample Encoding: MPEG audio (layer I, II or III)
Comments :
Title=Vultures
Artist=Rotten Hate
Album=Stabbing the Masses
Tracknumber=3
Year=2019
Genre=Death Metal
Discnumber=1



Register


Go to the top of the page
  Insert nick Quick quote
+Quote Post

Reply to this topicStart new topic
1 User(s) are reading this topic (1 Guests and 0 Anonymous Users)
0 Members:

 



- Lo-Fi Version Support form
Copyrights and abuse reports form
Time is now: 24th August 2019 - 04:23:59