Welcome Guest ( Log In | Register )

> Gallows Hymn - The Gathering Storm (2019), Progsressive Folk/Melodic Death Metal
post Aug 15 2019, 04:33:27
Post #1

Serial Uploader
Group Icon
Group: V.I.P
Posts: 36,878
Releases: 35064
From: Lithuania
On Forums: 11 years 7 months
Thanks: 412159 time(s)
Lithuania


(IMG:http://metalarea.org/images/audiocovers/2019_Aug/acov_tid325717_thumb.jpg)

*Artist: Gallows Hymn
*Album: The Gathering Storm
*Year: 2019
*Genre: Progsressive Folk/Melodic Death Metal
*Country: United States (IMG:http://metalarea.org/forum/style_images/flags/United%20States.png)
*Format: mp3@CBR320kbps
*Size: 106MB

Tracklist:
01. The Gathering Storm
02. Alesia
03. Straumfjord
04. Beacon of Fire in an Age of Ice
05. Time Beyond Memory (Interlude)
06. Xibalba
07. Cycladic Idol
08. Al Nefud
09. Seven Pillared Worthy House
******************************
Total playing time: 44:31



Technical info
(IMG:http://metalarea.org/images/spectrogram/2019_Aug/0edf041b7be0a6feabce16fcaf85ddae.png)
Input File: 02. Alesia.mp3
Channels : 2
Sample Rate : 44100
Precision : 16-bit
Duration : 00:06:41.87 = 17722335 samples = 30140 CDDA sectors
File Size : 16.5M
Bit Rate : 328k
Sample Encoding: MPEG audio (layer I, II or III)
Comments :
Title=Alesia
Artist=Gallows Hymn
Album=The Gathering Storm
Tracknumber=2/9
Year=2019



Register


Go to the top of the page
  Insert nick Quick quote
+Quote Post
 
Start new topic
Replies (1 - 5)
post Aug 16 2019, 08:55:34
Post #2

Group: Дух
Posts: 5
Releases: 0
On Forums: 8 years 1 month
Thanks: 0 time(s)
Latvia


can you please provide alternatives to sampo and karelia, those two are super slow and annoying, thanks
Go to the top of the page
  Insert nick Quick quote
+Quote Post
post Aug 19 2019, 12:53:59
Post #3

Ёлд ХеллоВяйне
Group Icon
Group: V.I.P
Posts: 28,600
Releases: 133
From: Питер
On Forums: 13 years 3 months
Thanks: 16410 time(s)
Russian Federation


QUOTE(forgersky @ 16th August 2019 - 10:55:34) *
can you please provide alternatives to sampo and karelia, those two are super slow and annoying, thanks


It's free to download from bandcamp.

Прикольная олдскульная штука.
Go to the top of the page
  Insert nick Quick quote
+Quote Post
post Aug 21 2019, 04:44:03
Post #4

кручу наждак
**************
Group: Металариец
Posts: 4,224
Releases: 99
From: Самара
On Forums: 9 years 8 months
Thanks: 3304 time(s)
Russian Federation


Странноватый, но довольно приятный альбом.
Go to the top of the page
  Insert nick Quick quote
+Quote Post
post Aug 21 2019, 06:42:16
Post #5

Наливай!
**************
Group: Металариец
Posts: 5,537
Releases: 27
From: Москва-Бибирево
On Forums: 11 years 10 months
Thanks: 2710 time(s)
Russian Federation


Go to the top of the page
  Insert nick Quick quote
+Quote Post
post Aug 22 2019, 13:32:56
Post #6

Ъ
**************
Group: Металариец
Posts: 9,877
Releases: 9
On Forums: 11 years 2 weeks
Thanks: 1943 time(s)
Sweden


Третьесорт.
Go to the top of the page
  Insert nick Quick quote
+Quote Post

Reply to this topicStart new topic
1 User(s) are reading this topic (1 Guests and 0 Anonymous Users)
0 Members:

 



- Lo-Fi Version Support form
Copyrights and abuse reports form
Time is now: 28th January 2020 - 18:55:58