Welcome Guest ( Log In | Register )

> Releases Upload / Добавление релизов

Добавить релиз тут / Click here to add release
Рекомендованные обменники / Recommended file shares

> Gallows Hymn - The Gathering Storm (2019), Progsressive Folk/Melodic Death Metal
post Aug 15 2019, 04:33:27
Post #1

Serial Uploader
Group Icon
Group: V.I.P
Posts: 35,871
Releases: 34078
From: Lithuania
On Forums: 11 years 2 months
Thanks: 393723 time(s)
Lithuania


(IMG:http://metalarea.org/images/audiocovers/2019_Aug/acov_tid325717_thumb.jpg)

*Artist: Gallows Hymn
*Album: The Gathering Storm
*Year: 2019
*Genre: Progsressive Folk/Melodic Death Metal
*Country: United States (IMG:http://metalarea.org/forum/style_images/flags/United%20States.png)
*Format: mp3@CBR320kbps
*Size: 106MB

Tracklist:
01. The Gathering Storm
02. Alesia
03. Straumfjord
04. Beacon of Fire in an Age of Ice
05. Time Beyond Memory (Interlude)
06. Xibalba
07. Cycladic Idol
08. Al Nefud
09. Seven Pillared Worthy House
******************************
Total playing time: 44:31



Technical info
(IMG:http://metalarea.org/images/spectrogram/2019_Aug/0edf041b7be0a6feabce16fcaf85ddae.png)
Input File: 02. Alesia.mp3
Channels : 2
Sample Rate : 44100
Precision : 16-bit
Duration : 00:06:41.87 = 17722335 samples = 30140 CDDA sectors
File Size : 16.5M
Bit Rate : 328k
Sample Encoding: MPEG audio (layer I, II or III)
Comments :
Title=Alesia
Artist=Gallows Hymn
Album=The Gathering Storm
Tracknumber=2/9
Year=2019



Register


Go to the top of the page
  Insert nick Quick quote
+Quote Post
 
Start new topic
Replies (1 - 5)
post Aug 16 2019, 08:55:34
Post #2

Group: Дух
Posts: 3
Releases: 0
On Forums: 7 years 8 months
Thanks: 0 time(s)
Latvia


can you please provide alternatives to sampo and karelia, those two are super slow and annoying, thanks
Go to the top of the page
  Insert nick Quick quote
+Quote Post
post Aug 19 2019, 12:53:59
Post #3

Ёлд ХеллоВяйне
Group Icon
Group: V.I.P
Posts: 27,491
Releases: 132
From: Питер
On Forums: 12 years 9 months
Thanks: 15501 time(s)
Russian Federation


QUOTE(forgersky @ 16th August 2019 - 10:55:34) *
can you please provide alternatives to sampo and karelia, those two are super slow and annoying, thanks


It's free to download from bandcamp.

Прикольная олдскульная штука.
Go to the top of the page
  Insert nick Quick quote
+Quote Post
post Aug 21 2019, 04:44:03
Post #4
BAN
Banned till
Aug 30 2019, 19:40:36



Странноватый, но довольно приятный альбом.
Go to the top of the page
  Insert nick Quick quote
+Quote Post
post Aug 21 2019, 06:42:16
Post #5

Наливай!
**************
Group: Металариец
Posts: 5,379
Releases: 27
From: Москва-Бибирево
On Forums: 11 years 5 months
Thanks: 2597 time(s)
Russian Federation


Go to the top of the page
  Insert nick Quick quote
+Quote Post
post Aug 22 2019, 13:32:56
Post #6

Ъ
**************
Group: Металариец
Posts: 9,640
Releases: 9
On Forums: 10 years 7 months
Thanks: 1879 time(s)
Sweden


Третьесорт.
Go to the top of the page
  Insert nick Quick quote
+Quote Post

Reply to this topicStart new topic
1 User(s) are reading this topic (1 Guests and 0 Anonymous Users)
0 Members:

 



- Lo-Fi Version Support form
Copyrights and abuse reports form
Time is now: 24th August 2019 - 04:34:35