Welcome Guest ( Log In | Register )

> Releases Upload / Добавление релизов

Добавить релиз тут / Click here to add release
Рекомендованные обменники / Recommended file shares

> Ekyrian - Más Allá De La Tempestad (2019), Folk Metal
post Aug 15 2019, 04:57:12
Post #1

Serial Uploader
Group Icon
Group: V.I.P
Posts: 35,871
Releases: 34078
From: Lithuania
On Forums: 11 years 2 months
Thanks: 393718 time(s)
Lithuania


(IMG:http://metalarea.org/images/audiocovers/2019_Aug/acov_tid325718_thumb.jpg)

*Artist: Ekyrian
*Album: Más Allá De La Tempestad
*Year: 2019
*Genre: Folk Metal
*Country: Spain (IMG:http://metalarea.org/forum/style_images/flags/Spain.png)
*Format: mp3@CBR320kbps
*Size: 155MB

Tracklist:
01. El Alma del Viento
02. El Aprendiz
03. La Travesia del Navegante
04. Alza la Vista
05. Valor
06. El Laberinto Magico
07. Viriato
08. Rutas Misteriosas
09. La Danza de los Muertos
10. El Arbol Dormido
11. El Capitan del Agua Trsite
12. Mas Alla de la Tempestad
13. El Cuento de la Oscuridad
******************************
Total playing time: 1:03:40



Technical info
(IMG:http://metalarea.org/images/spectrogram/2019_Aug/2db2cdd8a5d922c93000adb15c7e6fd5.png)
Input File: 02. El Aprendiz.mp3
Channels : 2
Sample Rate : 44100
Precision : 16-bit
Duration : 00:04:55.44 = 13028816 samples = 22157.9 CDDA sectors
File Size : 12.5M
Bit Rate : 340k
Sample Encoding: MPEG audio (layer I, II or III)
Comments :
Title=El Aprendiz
Artist=Ekyrian
Album=Mas Alla de la Tempestad
Tracknumber=2/13
Year=2019



Register


Go to the top of the page
  Insert nick Quick quote
+Quote Post
 
Start new topic
Replies (1 - 1)
post Aug 16 2019, 09:07:20
Post #2

hearer & reader
**************
Group: Металариец
Posts: 7,964
Releases: 103
From: Moscow
On Forums: 11 years 11 months
Thanks: 7464 time(s)
Russian Federation


Go to the top of the page
  Insert nick Quick quote
+Quote Post

Reply to this topicStart new topic
1 User(s) are reading this topic (1 Guests and 0 Anonymous Users)
0 Members:

 



- Lo-Fi Version Support form
Copyrights and abuse reports form
Time is now: 24th August 2019 - 03:13:15