Welcome Guest ( Log In | Register )

 
Reply to this topicStart new topic
> Morose - Morose (2017), Black Metal (D6)
post Aug 15 2019, 10:18:09
Post #1

Шесть Литров
******
Group: Металариец
Posts: 566
Releases: 2
On Forums: 6 years 2 months
Thanks: 494 time(s)
Unknown


(IMG:https://metalarea.org/images/audiocovers/2019_Aug/acov_tid325719_thumb.jpg)

*Artist: Morose
*Album: Morose
*Year: 2017
*Genre: Black Metal
*Country: United States (IMG:https://metalarea.org/forum/style_images/flags/United%20States.png)
*Format: mp3@CBR320kbps
*Size: 76MB

Tracklist:
1. Fixation 04:20
2. Plague 01:10
3. Cosmic Collapse 04:08
4. Cold Black Void 03:06
5. Winter 02:24
6. Autumnal Respite 05:21
7. Morose 06:26
8. 4'33 (John Cage cover) 04:34
******************************
Total playing time: 31:29





Technical info
(IMG:https://metalarea.org/images/spectrogram/2019_Aug/8926c9fb8324f6f77554abd4b0bd9a9d.png)
Input File: 01 - Morose - Fixation.mp3
Channels : 2
Sample Rate : 44100
Precision : 16-bit
Duration : 00:04:20.11 = 11470631 samples = 19507.9 CDDA sectors
File Size : 10.5M
Bit Rate : 324k
Sample Encoding: MPEG audio (layer I, II or III)
Comments :
Title=Fixation
Artist=Morose
Album=Morose
Tracknumber=1
Year=2017
Genre=Black Metal



Register


Go to the top of the page
  Insert nick Quick quote
+Quote Post

Reply to this topicStart new topic
1 User(s) are reading this topic (1 Guests and 0 Anonymous Users)
0 Members:

 



- Lo-Fi Version Support form
Copyrights and abuse reports form
Time is now: 12th December 2019 - 16:57:18