Welcome Guest ( Log In | Register )

> Releases Upload / Добавление релизов

Добавить релиз тут / Click here to add release
Рекомендованные обменники / Recommended file shares

 
Reply to this topicStart new topic
> The Projectionist - Visits From The Nighthag Part 2 (2019), Black Metal
post Aug 15 2019, 10:44:17
Post #1

Serial Uploader
Group Icon
Group: V.I.P
Posts: 35,871
Releases: 34078
From: Lithuania
On Forums: 11 years 2 months
Thanks: 393723 time(s)
Lithuania


(IMG:http://metalarea.org/images/audiocovers/2019_Aug/acov_tid325721_thumb.jpg)

*Artist: The Projectionist
*Album: Visits From The Nighthag Part 2
*Year: 2019
*Genre: Black Metal
*Country: Canada (IMG:http://metalarea.org/forum/style_images/flags/Canada.png)
*Format: mp3@CBR320kbps
*Size: 90MB

Tracklist:
01. So Tell Me Sir... 06:52
02. In Dormancy Ripe Targets Lay 05:24
03. Release from the Prison of Flesh 04:11
04. The Globe Theater 09:47
05. Blitzkrieg Craft 04:26
06. Bandages over Boards 04:07
07. Weapon Phased Through 02:06
******************************
Total playing time: 36:53




Technical info
(IMG:http://metalarea.org/images/spectrogram/2019_Aug/e0f9c8cafcb9fc022f1f300837adc3a9.png)
Input File: 02 In Dormancy Ripe Targets Lay.mp3
Channels : 2
Sample Rate : 44100
Precision : 16-bit
Duration : 00:05:23.29 = 14256913 samples = 24246.5 CDDA sectors
File Size : 13.5M
Bit Rate : 333k
Sample Encoding: MPEG audio (layer I, II or III)
Comments :
Title=In Dormancy Ripe Targets Lay
Artist=The Projectionist
Album=Visits From The Nighthag Part 2
Tracknumber=2
Year=2019
Genre=Black Metal



Register

Register


Go to the top of the page
  Insert nick Quick quote
+Quote Post

Reply to this topicStart new topic
1 User(s) are reading this topic (1 Guests and 0 Anonymous Users)
0 Members:

 



- Lo-Fi Version Support form
Copyrights and abuse reports form
Time is now: 24th August 2019 - 04:28:23