Welcome Guest ( Log In | Register )

> Releases Upload / Добавление релизов

Добавить релиз тут / Click here to add release
Рекомендованные обменники / Recommended file shares

> Putrescine - The One Reborn [ep] (2019), Death Metal
post Aug 15 2019, 11:05:04
Post #1

Правь статус, ####!111
**************
Group: Металариец
Posts: 18,116
Releases: 12251
From: Г.Харьков
On Forums: 7 years 3 months
Thanks: 206368 time(s)
Unknown


(IMG:https://metalarea.org/images/audiocovers/2019_Aug/acov_tid325723_thumb.jpg)

*Artist: Putrescine
*Album: The One Reborn [ep]
*Year: 2019
*Genre: Death Metal
*Country: United States (IMG:https://metalarea.org/forum/style_images/flags/United%20States.png)
*Format: mp3@CBR320kbps
*Size: 50MB

Tracklist:
1. Child Size Coffins 03:53
2. Homestead 04:46
3. The One Reborn 04:44
4. Inhuman 02:23
5. Entropy 05:33
******************************
Total playing time: 21:19



Extended info
Trevor Van Hook-Guitar, vocals
Zachary Sanders-Bass, leads
Marie McAuliffe-Vocals, drum programming


Technical info
(IMG:https://metalarea.org/images/spectrogram/2019_Aug/7e22ae63cbfe2211346b33f8cea4cb34.png)
Input File: 03 The One Reborn.mp3
Channels : 2
Sample Rate : 44100
Precision : 16-bit
Duration : 00:04:44.91 = 12564399 samples = 21368 CDDA sectors
File Size : 11.6M
Bit Rate : 325k
Sample Encoding: MPEG audio (layer I, II or III)
Comments :
Title=The One Reborn
Artist=Putrescine
Album=The One Reborn
Tracknumber=3
Year=2019



Register


Go to the top of the page
  Insert nick Quick quote
+Quote Post
 
Start new topic
Replies (1 - 1)
post Aug 15 2019, 22:11:47
Post #2

Правь статус, ####!111
**************
Group: Металариец
Posts: 3,946
Releases: 0
From: Одесса
On Forums: 11 years 5 months
Thanks: 2041 time(s)
Unknown


Drum machine fowevah.
Go to the top of the page
  Insert nick Quick quote
+Quote Post

Reply to this topicStart new topic
1 User(s) are reading this topic (1 Guests and 0 Anonymous Users)
0 Members:

 



- Lo-Fi Version Support form
Copyrights and abuse reports form
Time is now: 17th August 2019 - 21:35:21