Welcome Guest ( Log In | Register )

> Releases Upload / Добавление релизов

Добавить релиз тут / Click here to add release
Рекомендованные обменники / Recommended file shares

 
Reply to this topicStart new topic
> Tarchon Fist - Apocalypse (2019), Heavy Metal
post Aug 15 2019, 11:11:13
Post #1

Serial Uploader
Group Icon
Group: V.I.P
Posts: 35,871
Releases: 34078
From: Lithuania
On Forums: 11 years 2 months
Thanks: 393718 time(s)
Lithuania


(IMG:http://metalarea.org/images/audiocovers/2019_Aug/acov_tid325724_thumb.jpg)

*Artist: Tarchon Fist
*Album: Apocalypse
*Year: 2019
*Genre: Heavy Metal
*Country: Italy (IMG:http://metalarea.org/forum/style_images/flags/Italy.png)
*Format: mp3@CBR320kbps
*Size: 100MB

Tracklist:
01. Prologue to Apocalypse 03:20
02. Clash of the Gods 03:50
03. Evil Comes from Underground 03:44
04. Lights of Fire 04:12
05. No Mercy for the Enemy 02:55
06. Last Human Strength 03:50
07. Proud to Be Dinosaurs 04:38
08. Sky Rider 04:16
09. Titan of the Forest 04:23
10. Razor from the Abyss 03:12
11. My Destiny (Epilogue) 05:04
******************************
Total playing time: 43:24

(IMG:http://metalarea.org/images/myspace.png)


Technical info
(IMG:http://metalarea.org/images/spectrogram/2019_Aug/295d142c9c0a19af1839131c056cc6a5.png)
Input File: 2 - Clash of the Gods.mp3
Channels : 2
Sample Rate : 44100
Precision : 16-bit
Duration : 00:03:50.52 = 10165800 samples = 17288.8 CDDA sectors
File Size : 9.31M
Bit Rate : 323k
Sample Encoding: MPEG audio (layer I, II or III)
Comments :
Title=Clash of the Gods
Artist=Tarchon Fist
Album=Apocalypse
Tracknumber=2
Year=2019
Genre=Rock/Hard Rock/Metal
Discnumber=1



Register


Go to the top of the page
  Insert nick Quick quote
+Quote Post

Reply to this topicStart new topic
1 User(s) are reading this topic (1 Guests and 0 Anonymous Users)
0 Members:

 



- Lo-Fi Version Support form
Copyrights and abuse reports form
Time is now: 24th August 2019 - 03:15:28