Welcome Guest ( Log In | Register )

> Releases Upload / Добавление релизов

Добавить релиз тут / Click here to add release
Рекомендованные обменники / Recommended file shares

> Twilight Force - Dawn Of The Dragonstar (2019), Symphonic Power Metal
post Aug 15 2019, 11:39:16
Post #1

Serial Uploader
Group Icon
Group: V.I.P
Posts: 35,871
Releases: 34078
From: Lithuania
On Forums: 11 years 2 months
Thanks: 393722 time(s)
Lithuania


(IMG:http://metalarea.org/images/audiocovers/2019_Aug/acov_tid325728_thumb.jpg)

*Artist: Twilight Force
*Album: Dawn Of The Dragonstar
*Year: 2019
*Genre: Symphonic Power Metal
*Country: Sweden (IMG:http://metalarea.org/forum/style_images/flags/Sweden.png)
*Format: mp3@CBR320kbps
*Size: 180MB

Tracklist:
01. Dawn of the Dragonstar 03:37
02. Thundersword 04:58
03. Long Live the King 04:22
04. With the Light of a Thousand Suns 06:53
05. Winds of Wisdom 05:35
06. Queen of Eternity 05:02
07. Valley of the Vale 03:44
08. Hydra 05:34
09. Night of Winterlight 05:07
10. Blade of Immortal Steel 02:29
11. The Power of the Ancient Force (Hanna Turi Version) (Bonus Track) 04:58
12. With the Light of a Thousand Suns (Orchestral Version) (Bonus Track) 06:52
13. Enchanted Dragon of Wisdom (2007 Demo) (Bonus Track) 04:44
14. Forest of Destiny (2007 Demo) (Bonus Track) 04:29
******************************
Total playing time: 1:08:24


(IMG:http://metalarea.org/images/youtube.png)

Technical info
(IMG:http://metalarea.org/images/spectrogram/2019_Aug/8310ef800539bb596219f5a5026338a6.png)
Input File: 2 - Thundersword.mp3
Channels : 2
Sample Rate : 44100
Precision : 16-bit
Duration : 00:04:58.57 = 13166893 samples = 22392.7 CDDA sectors
File Size : 12.0M
Bit Rate : 321k
Sample Encoding: MPEG audio (layer I, II or III)
Comments :
Title=Thundersword
Artist=Twilight Force
Album=Dawn of the Dragonstar
Tracknumber=2
Year=2019
Genre=Rock/Hard Rock/Metal
Discnumber=1



Register


Go to the top of the page
  Insert nick Quick quote
+Quote Post
 
Start new topic
Replies (1 - 6)
post Aug 16 2019, 15:49:58
Post #2

Group: Дух
Posts: 8
Releases: 0
On Forums: 2 years 7 months
Thanks: 0 time(s)
Argentina


mirror please!
Go to the top of the page
  Insert nick Quick quote
+Quote Post
post Aug 17 2019, 07:48:36
Post #3

Добрый
**************
Group: Металариец
Posts: 2,670
Releases: 0
On Forums: 1 year 1 month
Thanks: 2312 time(s)
Russian Federation


183 mb/320 kbps
Register


Thanks:
Go to the top of the page
  Insert nick Quick quote
+Quote Post
post Aug 17 2019, 09:52:17
Post #4

Наливай!
**************
Group: Металариец
Posts: 5,379
Releases: 27
From: Москва-Бибирево
On Forums: 11 years 5 months
Thanks: 2597 time(s)
Russian Federation


Если во время прослушивания этого альбома вы изволите попивать чаю, сахар можете не сыпать в кружку. Просто поднесите чай к колонкам, засахарится в секунду.


Thanks:
Go to the top of the page
  Insert nick Quick quote
+Quote Post
post Aug 17 2019, 14:11:47
Post #5

Dark Ambient Shoujo
**********
Group: Металариец
Posts: 1,148
Releases: 1
On Forums: 10 years 7 months
Thanks: 573 time(s)
Russian Federation


Сразу почувствовал подвох, что-то не шведское, а там Конти...
Go to the top of the page
  Insert nick Quick quote
+Quote Post
post Aug 19 2019, 11:44:48
Post #6

Литр
*
Group: Подсевший
Posts: 55
Releases: 0
From: Kazakhstan
On Forums: 10 years 6 months
Thanks: 14 time(s)
Kazakhstan


Новый вокалист испортил музыку своим гнусавым вокалом. (((
Go to the top of the page
  Insert nick Quick quote
+Quote Post
post Aug 19 2019, 11:55:42
Post #7

Правь статус, ####!111
**************
Group: Металариец
Posts: 42,462
Releases: 644
On Forums: 10 years 2 months
Thanks: 33322 time(s)
Russian Federation


ЦИТАТА(yorsh @ Aug 19 2019, 14:44:48) *
Новый вокалист испортил музыку своим гнусавым вокалом. (((


Скорее писклявым, впрочем и музыка здесь не масштабна, пиликалки без пафоса и мощи.
Go to the top of the page
  Insert nick Quick quote
+Quote Post

Reply to this topicStart new topic
1 User(s) are reading this topic (1 Guests and 0 Anonymous Users)
0 Members:

 



- Lo-Fi Version Support form
Copyrights and abuse reports form
Time is now: 24th August 2019 - 03:58:01