Welcome Guest ( Log In | Register )

> Releases Upload / Добавление релизов

Добавить релиз тут / Click here to add release
Рекомендованные обменники / Recommended file shares

> Anticosm - The Call Of The Void (2019), Black/Thrash Metal
post Aug 15 2019, 11:50:04
Post #1

Правь статус, ####!111
**************
Group: Металариец
Posts: 18,200
Releases: 12307
From: Г.Харьков
On Forums: 7 years 3 months
Thanks: 207433 time(s)
Unknown


(IMG:https://metalarea.org/images/audiocovers/2019_Aug/acov_tid325731_thumb.jpg)

*Artist: Anticosm
*Album: The Call Of The Void
*Year: 2019
*Genre: Black/Thrash Metal
*Country: United States (IMG:https://metalarea.org/forum/style_images/flags/United%20States.png)
*Format: mp3@CBR320kbps
*Size: 94MB

Tracklist:
1. Viral 06:19
2. Someone Must Suffer 04:16
3. Scorched Earth 02:50
4. Call of the Void 05:52
5. Fall Asleep 05:15
6. Somewhere Between Life and Death 03:11
7. Behold the Venom Crystals 05:24
8. The Only Truth 04:57
9. Never Enough 03:05
******************************
Total playing time: 41:09




Extended info
Kirill Kovalevsky Vocals
Beheader Drums
Tom Wilson Bass
Mark Siedlecki Guitars (lead)



Technical info
(IMG:https://metalarea.org/images/spectrogram/2019_Aug/344ec6d75fd55ab0d60686b9110cf0a6.png)
Input File: 2 - Someone Must Suffer.mp3
Channels : 2
Sample Rate : 44100
Precision : 16-bit
Duration : 00:04:16.41 = 11307505 samples = 19230.5 CDDA sectors
File Size : 10.3M
Bit Rate : 322k
Sample Encoding: MPEG audio (layer I, II or III)
Comments :
Title=Someone Must Suffer
Artist=Anticosm
Album=The Call of the Void
Tracknumber=2
Year=2019
Genre=Alternative/Indie Rock/Metal
Discnumber=1



Register


Go to the top of the page
  Insert nick Quick quote
+Quote Post
 
Start new topic
Replies (1 - 2)
post Aug 15 2019, 21:31:49
Post #2

Правь статус, ####!111
**************
Group: Металариец
Posts: 18,200
Releases: 12307
From: Г.Харьков
On Forums: 7 years 3 months
Thanks: 207433 time(s)
Unknown


Cloud Mail 320
Register

FLAC (Tracks) 290 mb
Register


Go to the top of the page
  Insert nick Quick quote
+Quote Post
post Aug 17 2019, 23:50:59
Post #3

Литр
*
Group: Подсевший
Posts: 85
Releases: 11
From: Croatia
On Forums: 13 years 5 months
Thanks: 644 time(s)
Croatia


i'm at 5:00 on the first video and still waiting for either the "Thrash" or "Black" metal parts to start. this is pedestrian, soft melodic metal with "aggressive" vocals. absolutely no trace of black or thrash (though plenty of trash (IMG:style_emoticons/default/smile4.gif) )
Go to the top of the page
  Insert nick Quick quote
+Quote Post

Reply to this topicStart new topic
1 User(s) are reading this topic (1 Guests and 0 Anonymous Users)
0 Members:

 



- Lo-Fi Version Support form
Copyrights and abuse reports form
Time is now: 24th August 2019 - 03:40:30