Welcome Guest ( Log In | Register )

> Releases Upload / Добавление релизов

Добавить релиз тут / Click here to add release
Рекомендованные обменники / Recommended file shares

> Mysterizer - Invisible Enemy (2019), Heavy Metal
post Aug 15 2019, 12:01:21
Post #1

Serial Uploader
Group Icon
Group: V.I.P
Posts: 35,814
Releases: 34022
From: Lithuania
On Forums: 11 years 2 months
Thanks: 393044 time(s)
Lithuania


(IMG:http://metalarea.org/images/audiocovers/2019_Aug/acov_tid325732_thumb.jpg)

*Artist: Mysterizer
*Album: Invisible Enemy
*Year: 2019
*Genre: Heavy Metal
*Country: Finland (IMG:http://metalarea.org/forum/style_images/flags/Finland.png)
*Format: mp3@CBR320kbps
*Size: 111MB

Tracklist:
01. Take And Go
02. Trails Of Blood
03. Angel Of Mercy
04. No Return
05. Just Wait
06. The Dead Man’s Hand
07. Behind The Masquerade
08. Splitting The Darkness
09. Two Lives
10. Fire With Fire
11. Invisible Enemy
******************************
Total playing time: 48:15


(IMG:http://metalarea.org/images/youtube.png)

Technical info
(IMG:http://metalarea.org/images/spectrogram/2019_Aug/287948dfca909b4927a2c686a73e6aa6.png)
Input File: 2 - Trails of Blood.mp3
Channels : 2
Sample Rate : 44100
Precision : 16-bit
Duration : 00:04:13.61 = 11184201 samples = 19020.8 CDDA sectors
File Size : 10.2M
Bit Rate : 322k
Sample Encoding: MPEG audio (layer I, II or III)
Comments :
Title=Trails of Blood
Artist=Mysterizer
Album=Invisible Enemy
Tracknumber=2
Year=2019
Genre=Metal
Discnumber=1



Register


Go to the top of the page
  Insert nick Quick quote
+Quote Post
 
Start new topic
Replies (1 - 5)
post Yesterday, 16:23:42
Post #2

Пять Литров
*****
Group: Металариец
Posts: 446
Releases: 0
On Forums: 13 years 7 months
Thanks: 16 time(s)
Russian Federation


Awesome, thank you.
Go to the top of the page
  Insert nick Quick quote
+Quote Post
post Today, 11:39:59
Post #3

Шесть Литров
******
Group: Металариец
Posts: 536
Releases: 0
On Forums: 10 years 1 month
Thanks: 125 time(s)
Ukraine


Молодцы Финны, хороший альбом забацали!!
Go to the top of the page
  Insert nick Quick quote
+Quote Post
post Today, 16:41:24
Post #4

Правь статус, ####!111
**************
Group: Металариец
Posts: 2,549
Releases: 6
From: Dnipro
On Forums: 11 years 1 month
Thanks: 744 time(s)
Ukraine


На Пристов смахивает.
Go to the top of the page
  Insert nick Quick quote
+Quote Post
post Today, 16:48:41
Post #5

Шесть Литров
******
Group: Металариец
Posts: 634
Releases: 0
On Forums: 2 months 3 weeks
Thanks: 206 time(s)
Russian Federation


ЦИТАТА(isvili @ Aug 17 2019, 20:41:24) *
На Пристов смахивает.

Тоже верещат до трёх ночи, а потом играют друг другу соляки?
Go to the top of the page
  Insert nick Quick quote
+Quote Post
post Today, 20:09:07
Post #6

Group: Подсевший
Posts: 12
Releases: 0
On Forums: 4 years 9 months
Thanks: 0 time(s)
Unknown


А какой-нибудь другой обменник можно?
Go to the top of the page
  Insert nick Quick quote
+Quote Post

Reply to this topicStart new topic
1 User(s) are reading this topic (1 Guests and 0 Anonymous Users)
0 Members:

 



- Lo-Fi Version Support form
Copyrights and abuse reports form
Time is now: 17th August 2019 - 22:13:16