Welcome Guest ( Log In | Register )

> Mysterizer - Invisible Enemy (2019), Heavy Metal
post Aug 15 2019, 12:01:21
Post #1

Serial Uploader
Group Icon
Group: V.I.P
Posts: 36,586
Releases: 34775
From: Lithuania
On Forums: 11 years 6 months
Thanks: 407145 time(s)
Lithuania


(IMG:http://metalarea.org/images/audiocovers/2019_Aug/acov_tid325732_thumb.jpg)

*Artist: Mysterizer
*Album: Invisible Enemy
*Year: 2019
*Genre: Heavy Metal
*Country: Finland (IMG:http://metalarea.org/forum/style_images/flags/Finland.png)
*Format: mp3@CBR320kbps
*Size: 111MB

Tracklist:
01. Take And Go
02. Trails Of Blood
03. Angel Of Mercy
04. No Return
05. Just Wait
06. The Dead Man’s Hand
07. Behind The Masquerade
08. Splitting The Darkness
09. Two Lives
10. Fire With Fire
11. Invisible Enemy
******************************
Total playing time: 48:15


(IMG:http://metalarea.org/images/youtube.png)

Technical info
(IMG:http://metalarea.org/images/spectrogram/2019_Aug/287948dfca909b4927a2c686a73e6aa6.png)
Input File: 2 - Trails of Blood.mp3
Channels : 2
Sample Rate : 44100
Precision : 16-bit
Duration : 00:04:13.61 = 11184201 samples = 19020.8 CDDA sectors
File Size : 10.2M
Bit Rate : 322k
Sample Encoding: MPEG audio (layer I, II or III)
Comments :
Title=Trails of Blood
Artist=Mysterizer
Album=Invisible Enemy
Tracknumber=2
Year=2019
Genre=Metal
Discnumber=1



Register


Go to the top of the page
  Insert nick Quick quote
+Quote Post
 
Start new topic
Replies (1 - 5)
post Aug 16 2019, 16:23:42
Post #2

Пять Литров
*****
Group: Металариец
Posts: 452
Releases: 0
On Forums: 13 years 11 months
Thanks: 17 time(s)
Russian Federation


Awesome, thank you.
Go to the top of the page
  Insert nick Quick quote
+Quote Post
post Aug 17 2019, 11:39:59
Post #3

Шесть Литров
******
Group: Металариец
Posts: 556
Releases: 0
On Forums: 10 years 5 months
Thanks: 129 time(s)
Ukraine


Молодцы Финны, хороший альбом забацали!!
Go to the top of the page
  Insert nick Quick quote
+Quote Post
post Aug 17 2019, 16:41:24
Post #4

Правь статус, ####!111
**************
Group: Металариец
Posts: 2,756
Releases: 8
From: Dnipro
On Forums: 11 years 4 months
Thanks: 863 time(s)
Ukraine


На Пристов смахивает.
Go to the top of the page
  Insert nick Quick quote
+Quote Post
post Aug 17 2019, 20:09:07
Post #5

Group: Подсевший
Posts: 20
Releases: 0
On Forums: 5 years 1 month
Thanks: 1 time(s)
Unknown


А какой-нибудь другой обменник можно?
Go to the top of the page
  Insert nick Quick quote
+Quote Post
post Aug 23 2019, 16:25:05
Post #6

Шесть Литров
******
Group: Металариец
Posts: 647
Releases: 0
From: South Of Heaven
On Forums: 12 years 4 months
Thanks: 295 time(s)
Ukraine


ЦИТАТА(Morda_Morda @ 17th August 2019 - 22:09:07) *
А какой-нибудь другой обменник можно?

Register


Thanks:
Go to the top of the page
  Insert nick Quick quote
+Quote Post

Reply to this topicStart new topic
1 User(s) are reading this topic (1 Guests and 0 Anonymous Users)
0 Members:

 



- Lo-Fi Version Support form
Copyrights and abuse reports form
Time is now: 8th December 2019 - 17:06:45