Welcome Guest ( Log In | Register )

> Releases Upload / Добавление релизов

Добавить релиз тут / Click here to add release
Рекомендованные обменники / Recommended file shares

> Detherous - Hacked To Death (2019), Death/Thrash Metal
post Aug 15 2019, 12:05:30
Post #1

Правь статус, ####!111
**************
Group: Металариец
Posts: 18,200
Releases: 12307
From: Г.Харьков
On Forums: 7 years 3 months
Thanks: 207436 time(s)
Unknown


(IMG:https://metalarea.org/images/audiocovers/2019_Aug/acov_tid325733_thumb.jpg)

*Artist: Detherous
*Album: Hacked To Death
*Year: 2019
*Genre: Death/Thrash Metal
*Country: Canada (IMG:https://metalarea.org/forum/style_images/flags/Canada.png)
*Format: mp3@CBR320kbps
*Size: 76MB

Tracklist:
1. Smouldering Ashes 04:21
2. Practitioners of Pain 03:21
3. Ridden 04:32
4. NIRC 04:09
5. Hacked to Death 04:24
6. Monstrosity 03:22
7. From Hell They Rise 04:07
8. Brain Death 05:02
******************************
Total playing time: 33:18





Extended info
Damon MacDonald Vocals (lead), Guitars (rhythm)
Dimitri LaRose Drums, Vocals (backing)
Dylan Spicer Guitars (lead), Vocals (backing)
Kamen Proudfoot Bass


Technical info
(IMG:https://metalarea.org/images/spectrogram/2019_Aug/6851a452c5c5b0dfe38359494753e3f1.png)
Input File: 3 - Ridden.mp3
Channels : 2
Sample Rate : 44100
Precision : 16-bit
Duration : 00:04:31.56 = 11975664 samples = 20366.8 CDDA sectors
File Size : 10.9M
Bit Rate : 322k
Sample Encoding: MPEG audio (layer I, II or III)
Comments :
Title=Ridden
Artist=Detherous
Album=Hacked to Death
Tracknumber=3
Year=2019
Genre=Rock
Discnumber=1



Register


Go to the top of the page
  Insert nick Quick quote
+Quote Post
 
Start new topic
Replies (1 - 3)
post Aug 16 2019, 11:52:12
Post #2

Group: Дух
Posts: 2
Releases: 0
On Forums: 2 years 2 months
Thanks: 0 time(s)
Czech Republic


Please Flac. Thx
Go to the top of the page
  Insert nick Quick quote
+Quote Post
post Aug 16 2019, 14:51:53
Post #3

Правь статус, ####!111
**************
Group: Металариец
Posts: 18,200
Releases: 12307
From: Г.Харьков
On Forums: 7 years 3 months
Thanks: 207436 time(s)
Unknown


ЦИТАТА(jaboza @ 16th August 2019 - 11:52:12) *
Please Flac

FLAC (Tracks) 255 mb
Register


Go to the top of the page
  Insert nick Quick quote
+Quote Post
post Aug 20 2019, 12:59:24
Post #4

Три Литра
***
Group: Завсегдатай
Posts: 289
Releases: 0
From: Липецк
On Forums: 10 years 1 month
Thanks: 31 time(s)
Russian Federation


То,что доктор прописал))
Go to the top of the page
  Insert nick Quick quote
+Quote Post

Reply to this topicStart new topic
1 User(s) are reading this topic (1 Guests and 0 Anonymous Users)
0 Members:

 



- Lo-Fi Version Support form
Copyrights and abuse reports form
Time is now: 24th August 2019 - 04:02:29