Welcome Guest ( Log In | Register )

> Detherous - Hacked To Death (2019), Death/Thrash Metal
post Aug 15 2019, 12:05:30
Post #1

Правь статус, ####!111
**************
Group: Металариец
Posts: 20,343
Releases: 13874
From: Г.Харьков
On Forums: 7 years 8 months
Thanks: 243253 time(s)
Unknown


(IMG:https://metalarea.org/images/audiocovers/2019_Aug/acov_tid325733_thumb.jpg)

*Artist: Detherous
*Album: Hacked To Death
*Year: 2019
*Genre: Death/Thrash Metal
*Country: Canada (IMG:https://metalarea.org/forum/style_images/flags/Canada.png)
*Format: mp3@CBR320kbps
*Size: 76MB

Tracklist:
1. Smouldering Ashes 04:21
2. Practitioners of Pain 03:21
3. Ridden 04:32
4. NIRC 04:09
5. Hacked to Death 04:24
6. Monstrosity 03:22
7. From Hell They Rise 04:07
8. Brain Death 05:02
******************************
Total playing time: 33:18





Extended info
Damon MacDonald Vocals (lead), Guitars (rhythm)
Dimitri LaRose Drums, Vocals (backing)
Dylan Spicer Guitars (lead), Vocals (backing)
Kamen Proudfoot Bass


Technical info
(IMG:https://metalarea.org/images/spectrogram/2019_Aug/6851a452c5c5b0dfe38359494753e3f1.png)
Input File: 3 - Ridden.mp3
Channels : 2
Sample Rate : 44100
Precision : 16-bit
Duration : 00:04:31.56 = 11975664 samples = 20366.8 CDDA sectors
File Size : 10.9M
Bit Rate : 322k
Sample Encoding: MPEG audio (layer I, II or III)
Comments :
Title=Ridden
Artist=Detherous
Album=Hacked to Death
Tracknumber=3
Year=2019
Genre=Rock
Discnumber=1



Register


Go to the top of the page
  Insert nick Quick quote
+Quote Post
 
Start new topic
Replies (1 - 7)
post Aug 16 2019, 11:52:12
Post #2

Group: Дух
Posts: 3
Releases: 0
On Forums: 2 years 7 months
Thanks: 0 time(s)
Czech Republic


Please Flac. Thx
Go to the top of the page
  Insert nick Quick quote
+Quote Post
post Aug 16 2019, 14:51:53
Post #3

Правь статус, ####!111
**************
Group: Металариец
Posts: 20,343
Releases: 13874
From: Г.Харьков
On Forums: 7 years 8 months
Thanks: 243253 time(s)
Unknown


ЦИТАТА(jaboza @ 16th August 2019 - 11:52:12) *
Please Flac

FLAC (Tracks) 255 mb
Register


Go to the top of the page
  Insert nick Quick quote
+Quote Post
post Aug 20 2019, 12:59:24
Post #4

Три Литра
***
Group: Завсегдатай
Posts: 297
Releases: 0
From: Липецк
On Forums: 10 years 6 months
Thanks: 32 time(s)
Russian Federation


То,что доктор прописал))
Go to the top of the page
  Insert nick Quick quote
+Quote Post
post Oct 16 2019, 07:51:14
Post #5

Grind the Human Scum
*********
Group: Металариец
Posts: 986
Releases: 18
On Forums: 13 years 3 weeks
Thanks: 925 time(s)
Russian Federation


оголтело, надо брать
Go to the top of the page
  Insert nick Quick quote
+Quote Post
post Oct 16 2019, 09:36:08
Post #6

Мегаманьяк
***********
Group: Металариец
Posts: 1,963
Releases: 0
From: Украина
On Forums: 11 years 3 weeks
Thanks: 1239 time(s)
Ukraine


Отэто дубасят гады)Орут психопаты, прям Ван Друнена сожрать хотят, башня сорвана, кровельщик занят или зовсім немає), но это по началу, а потом слушаешь и понимаешь что красиво смалят и утюжат. Врачикам звонит без полезно, эти черти выспятся на них в чистую. А если без смеха, то играют приятно, тяжеловесно, достойно и интересно. Интересно я вам говорю. Черти бы их ........... (IMG:style_emoticons/default/pray.gif) (IMG:style_emoticons/default/pray.gif) (IMG:style_emoticons/default/pray.gif) (IMG:style_emoticons/default/15.gif) (IMG:style_emoticons/default/smile3.gif)


Thanks:
Go to the top of the page
  Insert nick Quick quote
+Quote Post
post Oct 16 2019, 09:37:29
Post #7

Правь статус, ####!111
**************
Group: Металариец
Posts: 44,963
Releases: 694
On Forums: 10 years 7 months
Thanks: 36493 time(s)
Russian Federation


ЦИТАТА(troll_swamp @ Oct 16 2019, 11:36:08) *


Это мужыки эти скорее бы чертей сами сжарили, судя по твоему посту (IMG:style_emoticons/default/1488.gif)
Go to the top of the page
  Insert nick Quick quote
+Quote Post
post Oct 16 2019, 09:43:17
Post #8

Мегаманьяк
***********
Group: Металариец
Posts: 1,963
Releases: 0
From: Украина
On Forums: 11 years 3 weeks
Thanks: 1239 time(s)
Ukraine


ЦИТАТА(vosmidesijatye @ Oct 16 2019, 11:37:29) *
Это мужыки эти скорее бы чертей сами сжарили, судя по твоему посту (IMG:style_emoticons/default/1488.gif)

... возможно это было-бы интересно (IMG:style_emoticons/default/crazy.gif) , а вот поучаствовать так вообще бесценнейший опыт (IMG:style_emoticons/default/1488.gif)
Go to the top of the page
  Insert nick Quick quote
+Quote Post

Reply to this topicStart new topic
1 User(s) are reading this topic (1 Guests and 0 Anonymous Users)
0 Members:

 



- Lo-Fi Version Support form
Copyrights and abuse reports form
Time is now: 28th January 2020 - 02:19:39