Welcome Guest ( Log In | Register )

> Releases Upload / Добавление релизов

Добавить релиз тут / Click here to add release
Рекомендованные обменники / Recommended file shares

 
Reply to this topicStart new topic
> Dialith - Extinction Six (2019), Symphonic/Power Metal
post Aug 15 2019, 12:09:44
Post #1

Serial Uploader
Group Icon
Group: V.I.P
Posts: 35,814
Releases: 34022
From: Lithuania
On Forums: 11 years 2 months
Thanks: 393045 time(s)
Lithuania


(IMG:http://metalarea.org/images/audiocovers/2019_Aug/acov_tid325734_thumb.jpg)

*Artist: Dialith
*Album: Extinction Six
*Year: 2019
*Genre: Symphonic/Power Metal
*Country: United States (IMG:http://metalarea.org/forum/style_images/flags/United%20States.png)
*Format: mp3@CBR320kbps
*Size: 145MB

Tracklist:
01. Emergence (Intro) 02:32
02. The Sound of Your Voice 06:06
03. Where Fire Dwells 04:58
04. Libra 05:08
05. Break the Chains 03:57
06. Quiver of Deception 05:21
07. The River Runs Dry 04:02
08. In Every Breath 03:41
09. Catalyst 04:45
10. The Wraith 05:08
11. Extinction Six 17:33
******************************
Total playing time: 1:03:11



(IMG:http://metalarea.org/images/youtube.png)

Technical info
(IMG:http://metalarea.org/images/spectrogram/2019_Aug/51175b74febc055507409fbc9c66c448.png)
Input File: 2 - The Sound of Your Voice.mp3
Channels : 2
Sample Rate : 44100
Precision : 16-bit
Duration : 00:06:06.49 = 16162297 samples = 27486.9 CDDA sectors
File Size : 14.7M
Bit Rate : 321k
Sample Encoding: MPEG audio (layer I, II or III)
Comments :
Title=The Sound of Your Voice
Artist=Dialith
Album=Extinction Six
Tracknumber=2
Year=2019
Genre=Metal
Discnumber=1



Register


Go to the top of the page
  Insert nick Quick quote
+Quote Post

Reply to this topicStart new topic
1 User(s) are reading this topic (1 Guests and 0 Anonymous Users)
0 Members:

 



- Lo-Fi Version Support form
Copyrights and abuse reports form
Time is now: 17th August 2019 - 22:34:20