Welcome Guest ( Log In | Register )

> Nevain - Hidden (2019), Atmospheric Doom Metal
post Aug 15 2019, 12:19:24
Post #1

Serial Uploader
Group Icon
Group: V.I.P
Posts: 36,878
Releases: 35064
From: Lithuania
On Forums: 11 years 7 months
Thanks: 412159 time(s)
Lithuania


(IMG:http://metalarea.org/images/audiocovers/2019_Aug/acov_tid325736_thumb.jpg)

*Artist: Nevain
*Album: Hidden
*Year: 2019
*Genre: Atmospheric Doom Metal
*Country: Israel (IMG:http://metalarea.org/forum/style_images/flags/Israel.png)
*Format: mp3@CBR320kbps
*Size: 110MB

Tracklist:
01. Hidden
02. Shadowfall
03. Desolate Ways
04. Pale Distant Light
05. Disharmony
06. Unending Sorrow
07. The Blackened Dawn
08. Fields of Grey
******************************
Total playing time: 47:51



Technical info
(IMG:http://metalarea.org/images/spectrogram/2019_Aug/6afd59d6b7a296a9d9ca6e6fbd5ee944.png)
Input File: 2 - Shadowfall.mp3
Channels : 2
Sample Rate : 44100
Precision : 16-bit
Duration : 00:05:31.20 = 14605832 samples = 24839.9 CDDA sectors
File Size : 13.3M
Bit Rate : 321k
Sample Encoding: MPEG audio (layer I, II or III)
Comments :
Title=Shadowfall
Artist=Nevain
Album=Hidden
Tracknumber=2
Year=2019
Discnumber=1



Register


Go to the top of the page
  Insert nick Quick quote
+Quote Post
 
Start new topic
Replies (1 - 4)
post Aug 16 2019, 10:14:34
Post #2

Два Литра
**
Group: Завсегдатай
Posts: 192
Releases: 5
On Forums: 7 years 11 months
Thanks: 276 time(s)
Ukraine




Thanks:
Go to the top of the page
  Insert nick Quick quote
+Quote Post
post Aug 17 2019, 08:07:54
Post #3

Семь Литров
*******
Group: Металариец
Posts: 703
Releases: 0
From: South Of Heaven
On Forums: 12 years 6 months
Thanks: 314 time(s)
Ukraine


Довольно приятный инструментальный альбомчик (IMG:style_emoticons/default/banana.gif) . Местами Therion напоминает, местами ещё что-то... (IMG:style_emoticons/default/smile3.gif) для фона самое то.
Но без вокала конечно пресновато как-то...
Релизёру (IMG:style_emoticons/default/9.gif)


Thanks:
Go to the top of the page
  Insert nick Quick quote
+Quote Post
post Sep 4 2019, 20:54:24
Post #4

Волк без яблока
**************
Group: Металариец
Posts: 13,433
Releases: 108
From: Санкт-Петербург
On Forums: 13 years 4 months
Thanks: 15437 time(s)
Russian Federation


Хороший инструментал, некоторые части, правда, провисают, но аранжировки красочные, и мелодий немало сочных.


Thanks:
Go to the top of the page
  Insert nick Quick quote
+Quote Post
post Sep 5 2019, 14:59:47
Post #5

Три Литра
***
Group: Завсегдатай
Posts: 211
Releases: 0
From: Лыткарино
On Forums: 8 months 2 weeks
Thanks: 48 time(s)
Russian Federation


Еврейский думец)? Нееее, не надо))
Go to the top of the page
  Insert nick Quick quote
+Quote Post

Reply to this topicStart new topic
1 User(s) are reading this topic (1 Guests and 0 Anonymous Users)
0 Members:

 



- Lo-Fi Version Support form
Copyrights and abuse reports form
Time is now: 28th January 2020 - 18:56:14