Welcome Guest ( Log In | Register )

> 

Здесь релизы с живыми прямыми ссылками на lossless

> Abysmal Lord - Exaltation Of The Infernal Cabal (2019), Black/Death Metal
post Aug 15 2019, 12:24:45
Post #1

Serial Uploader
Group Icon
Group: V.I.P
Posts: 36,586
Releases: 34775
From: Lithuania
On Forums: 11 years 6 months
Thanks: 407144 time(s)
Lithuania


(IMG:https://metalarea.org/images/audiocovers/2019_Aug/acov_tid325738_thumb.jpg)

*Artist: Abysmal Lord
*Album: Exaltation Of The Infernal Cabal
*Year: 2019
*Genre: Black/Death Metal
*Country: United States (IMG:https://metalarea.org/forum/style_images/flags/United%20States.png)
*Format: mp3@CBR320kbps
*Size: 86MB

Tracklist:
01. The Exalted Killing (intro) 01:25
02. Monolith of Vengeance 02:15
03. Races of Jehovah's Despair 04:25
04. Scythe of Damnation 02:51
05. Exaltation of the Infernal Cabal 04:27
06. Holy Incest 03:47
07. Preparing the Throne 04:22
08. Nuclear Absolution 03:41
09. Scars of Heresy 02:57
10. Scourge of Christ 04:14
******************************
Total playing time: 34:24



Technical info
(IMG:https://metalarea.org/images/spectrogram/2019_Aug/740d246bf1870c28c18cf85ed2f0ebe7.png)
Input File: 02. Monolith of Vengeance.mp3
Channels : 2
Sample Rate : 44100
Precision : 16-bit
Duration : 00:02:14.85 = 5947061 samples = 10114 CDDA sectors
File Size : 5.97M
Bit Rate : 354k
Sample Encoding: MPEG audio (layer I, II or III)
Comments :
Title=Monolith of Vengeance
Artist=Abysmal Lord
Album=Exaltation of the Infernal Cabal
Tracknumber=2
Year=2019
Discnumber=1



Register


Go to the top of the page
  Insert nick Quick quote
+Quote Post
 
Start new topic
Replies (1 - 7)
post Aug 15 2019, 23:10:27
Post #2

Правь статус, ####!111
**************
Group: Металариец
Posts: 44,478
Releases: 687
On Forums: 10 years 6 months
Thanks: 35814 time(s)
Russian Federation


Do ya like dat fukin` noize ? (IMG:style_emoticons/default/1488.gif)
Go to the top of the page
  Insert nick Quick quote
+Quote Post
post Aug 15 2019, 23:12:54
Post #3

Правь статус, ####!111
**************
Group: Металариец
Posts: 4,292
Releases: 0
From: Одесса
On Forums: 11 years 9 months
Thanks: 2552 time(s)
Unknown


QUOTE(vosmidesijatye @ Aug 16 2019, 00:10:27) *
Do ya like dat fukin` noize ? (IMG:style_emoticons/default/1488.gif)

Style better than the overpraised swedish death metal sounding bands (IMG:style_emoticons/default/1488.gif)
Go to the top of the page
  Insert nick Quick quote
+Quote Post
post Aug 15 2019, 23:14:43
Post #4

Правь статус, ####!111
**************
Group: Металариец
Posts: 44,478
Releases: 687
On Forums: 10 years 6 months
Thanks: 35814 time(s)
Russian Federation


ЦИТАТА(babanguida @ Aug 16 2019, 02:12:54) *
Style better than the overpraised swedish death metal sounding bands (IMG:style_emoticons/default/1488.gif)


Rawness is not always good. When it comes to music I prefer swedish at least dey have decent melodies instead of wave of noise (IMG:style_emoticons/default/25.gif)


Thanks:
(1) Ghostb,
Go to the top of the page
  Insert nick Quick quote
+Quote Post
post Aug 15 2019, 23:16:10
Post #5

Правь статус, ####!111
**************
Group: Металариец
Posts: 4,292
Releases: 0
From: Одесса
On Forums: 11 years 9 months
Thanks: 2552 time(s)
Unknown


QUOTE(vosmidesijatye @ Aug 16 2019, 00:14:43) *
Rawness is not always good. When it comes to music I prefer swedish at least dey have decent melodies instead of wave of noise (IMG:style_emoticons/default/25.gif)

melodies (IMG:style_emoticons/default/22.gif)


Thanks:
(1) sacrut,
Go to the top of the page
  Insert nick Quick quote
+Quote Post
post Aug 16 2019, 00:13:43
Post #6

Правь статус, ####!111
**************
Group: Металариец
Posts: 19,792
Releases: 13423
From: Г.Харьков
On Forums: 7 years 6 months
Thanks: 232241 time(s)
Unknown


FLAC (Tracks) 251 mb
Register


Go to the top of the page
  Insert nick Quick quote
+Quote Post
post Aug 16 2019, 12:16:46
Post #7

De Mysteriis Dom Sathanas
**************
Group: Металариец
Posts: 3,752
Releases: 63
From: Doom
On Forums: 11 years 4 months
Thanks: 3165 time(s)
Russian Federation


Наконец-то достойный гоат блэк/дэт, а не всякая ерунда дэтблэковая (IMG:style_emoticons/default/pray.gif)


Thanks:
Go to the top of the page
  Insert nick Quick quote
+Quote Post
post Aug 17 2019, 08:10:29
Post #8

Правь статус, ####!111
**************
Group: Металариец
Posts: 4,292
Releases: 0
From: Одесса
On Forums: 11 years 9 months
Thanks: 2552 time(s)
Unknown


First class War metal. Highly recommended for those who are into this style of Black Death (Black Witchery...). Better than their previous recordings. (IMG:style_emoticons/default/9.gif)
Go to the top of the page
  Insert nick Quick quote
+Quote Post

Reply to this topicStart new topic
1 User(s) are reading this topic (1 Guests and 0 Anonymous Users)
0 Members:

 



- Lo-Fi Version Support form
Copyrights and abuse reports form
Time is now: 8th December 2019 - 16:36:04