Welcome Guest ( Log In | Register )

> Releases Upload / Добавление релизов

Добавить релиз тут / Click here to add release
Рекомендованные обменники / Recommended file shares

> Red Razor - The Revolution Continues (2019), Old School Thrash Metal
post Aug 15 2019, 12:32:33
Post #1

Правь статус, ####!111
**************
Group: Металариец
Posts: 18,200
Releases: 12307
From: Г.Харьков
On Forums: 7 years 3 months
Thanks: 207430 time(s)
Unknown


(IMG:https://metalarea.org/images/audiocovers/2019_Aug/acov_tid325739_thumb.jpg)

*Artist: Red Razor
*Album: The Revolution Continues
*Year: 2019
*Genre: Old School Thrash Metal
*Country: Brazil (IMG:https://metalarea.org/forum/style_images/flags/Brazil.png)
*Format: mp3@CBR320kbps
*Size: 71MB

Tracklist:
1. The Revolution Continues 04:54
2. For Those About to Thrash 02:40
3. Violent Times 02:54
4. Born in South America 06:11
5. R.I.P. Democracy 03:15
6. Sour Power 02:28
7. Brewtal Mosh 02:46
8. The Sadist 05:38
******************************
Total playing time: 30:46




Extended info
Fabricio Valle Guitars, Vocals, Lyrics
Gustavo Kretzer Bass
Igor Thiesen Drums
Daniel Rosick Guitars


Technical info
(IMG:https://metalarea.org/images/spectrogram/2019_Aug/404c435a1da45f50a68a3fb4a030e4cb.png)
Input File: 5 - R.I.P. Democracy.mp3
Channels : 2
Sample Rate : 44100
Precision : 16-bit
Duration : 00:03:15.88 = 8638132 samples = 14690.7 CDDA sectors
File Size : 7.90M
Bit Rate : 323k
Sample Encoding: MPEG audio (layer I, II or III)
Comments :
Title=R.I.P. Democracy
Artist=Red Razor
Album=The Revolution Continues
Tracknumber=5
Year=2019
Genre=Metal
Discnumber=1



Register


Go to the top of the page
  Insert nick Quick quote
+Quote Post
 
Start new topic
Replies (1 - 7)
post Aug 15 2019, 22:02:19
Post #2

Правь статус, ####!111
**************
Group: Металариец
Posts: 18,200
Releases: 12307
From: Г.Харьков
On Forums: 7 years 3 months
Thanks: 207430 time(s)
Unknown


Cloud Mail 320
Register


Go to the top of the page
  Insert nick Quick quote
+Quote Post
post Aug 15 2019, 22:24:58
Post #3

Правь статус, ####!111
**************
Group: Металариец
Posts: 42,462
Releases: 644
On Forums: 10 years 2 months
Thanks: 33322 time(s)
Russian Federation


Обложка в видео варианте (IMG:style_emoticons/default/15.gif)

Go to the top of the page
  Insert nick Quick quote
+Quote Post
post Aug 16 2019, 20:07:20
Post #4

MDM-Thrash Metal
**************
Group: Металариец
Posts: 8,564
Releases: 570
From: Одесса
On Forums: 12 years 1 week
Thanks: 16631 time(s)
Ukraine


Альбом начинается с душевных ноток...настальджи аж до слез.
Go to the top of the page
  Insert nick Quick quote
+Quote Post
post Aug 17 2019, 16:48:29
Post #5

Правь статус, ####!111
**************
Group: Металариец
Posts: 2,558
Releases: 7
From: Dnipro
On Forums: 11 years 1 month
Thanks: 750 time(s)
Ukraine


ЦИТАТА(Andrew @ Aug 16 2019, 22:07:20) *
Альбом начинается с душевных ноток...настальджи аж до слез.

А я еще с садика интернационал не переношу. Это же совок нафталиновый.
Go to the top of the page
  Insert nick Quick quote
+Quote Post
post Aug 17 2019, 16:50:43
Post #6
BAN
Banned till
Sep 1 2019, 09:15:52



ЦИТАТА(vosmidesijatye @ Aug 16 2019, 02:24:58) *
Обложка в видео варианте (IMG:style_emoticons/default/15.gif)


Скоробогатый вообще пацан по масти
Go to the top of the page
  Insert nick Quick quote
+Quote Post
post Aug 17 2019, 21:38:06
Post #7

Шесть Литров
******
Group: Металариец
Posts: 538
Releases: 0
On Forums: 10 years 1 month
Thanks: 125 time(s)
Ukraine


олдскульный трэш, свежо все звучиь как то, и довольно таки толково сыгранный, огромное спасибо ща релиз
Go to the top of the page
  Insert nick Quick quote
+Quote Post
post Aug 20 2019, 22:01:19
Post #8

Шесть Литров
******
Group: Металариец
Posts: 673
Releases: 0
From: Одесса-мама
On Forums: 10 years 7 months
Thanks: 213 time(s)
Ukraine


Спасибки!
Класс! (IMG:style_emoticons/default/metaler.gif)
Go to the top of the page
  Insert nick Quick quote
+Quote Post

Reply to this topicStart new topic
1 User(s) are reading this topic (1 Guests and 0 Anonymous Users)
0 Members:

 



- Lo-Fi Version Support form
Copyrights and abuse reports form
Time is now: 24th August 2019 - 03:21:20