Welcome Guest ( Log In | Register )

> Releases Upload / Добавление релизов

Добавить релиз тут / Click here to add release
Рекомендованные обменники / Recommended file shares

> Parallel Dimension - Angular Perceptions (2019), Progressive Metal
post Aug 15 2019, 12:34:07
Post #1

Serial Uploader
Group Icon
Group: V.I.P
Posts: 35,871
Releases: 34078
From: Lithuania
On Forums: 11 years 2 months
Thanks: 393723 time(s)
Lithuania


(IMG:http://metalarea.org/images/audiocovers/2019_Aug/acov_tid325740_thumb.jpg)

*Artist: Parallel Dimension
*Album: Angular Perceptions
*Year: 2019
*Genre: Progressive Metal
*Country: Puerto Rico (IMG:http://metalarea.org/forum/style_images/flags/Puerto%20Rico.png)
*Format: mp3@CBR320kbps
*Size: 145MB

Tracklist:
01. Into the Mind's Womb (Overture)
02. Hall of Mirrors
03. What Lies Beyond
04. Orogeny
05. Hollow Hourglass (A Beautiful Lie)
06. Horizons
07. Vanishing Illusion
08. Delicate Violence
******************************
Total playing time: 1:03:05






Technical info
(IMG:http://metalarea.org/images/spectrogram/2019_Aug/498f0fbbc2a89b4d4a007187ab76e221.png)
Input File: 2 - Hall of Mirrors.mp3
Channels : 2
Sample Rate : 44100
Precision : 16-bit
Duration : 00:08:19.65 = 22034477 samples = 37473.6 CDDA sectors
File Size : 20.0M
Bit Rate : 321k
Sample Encoding: MPEG audio (layer I, II or III)
Comments :
Title=Hall of Mirrors
Artist=Parallel Dimension
Album=Angular Perceptions
Tracknumber=2
Year=2019
Genre=Metal
Discnumber=1



Register


Go to the top of the page
  Insert nick Quick quote
+Quote Post
 
Start new topic
Replies (1 - 2)
post Aug 17 2019, 16:08:40
Post #2

Dark Ambient Shoujo
**********
Group: Металариец
Posts: 1,148
Releases: 1
On Forums: 10 years 7 months
Thanks: 573 time(s)
Russian Federation


Хм, вообще говоря, неплохо. Только, внезапно, слишком плотно, как по мне, музыке воздуха не хватает. Если бы немного продышаться дали, было бы вообще на уровне топов.
Go to the top of the page
  Insert nick Quick quote
+Quote Post
post Aug 17 2019, 16:54:33
Post #3

Наливай!
**************
Group: Металариец
Posts: 5,379
Releases: 27
From: Москва-Бибирево
On Forums: 11 years 5 months
Thanks: 2597 time(s)
Russian Federation


Песня с ИПихи, но на альбоме она есть.

Go to the top of the page
  Insert nick Quick quote
+Quote Post

Reply to this topicStart new topic
1 User(s) are reading this topic (1 Guests and 0 Anonymous Users)
0 Members:

 



- Lo-Fi Version Support form
Copyrights and abuse reports form
Time is now: 24th August 2019 - 04:28:30